Dead Kennedys – Give Me Convenience or Give Me Death




[Total: 0    Average: 0/5]

Artist: Dead Kennedys
Year: 1987
Genre: Hardcore
Notes: Discogs
Add. Notes:
Cover incl.: Yes
Encoder: FLAC
Bitrate: ~900 kBit/s (44.1 kHz/16 Bit/s)
Log & Cue incl.: Yes
Size: 331,23 MB
Password: “slam” (without ” “)


All Downloads/Hosters are compatible

Download 1
Share-online.biz
Rapidgator.net
KatFile.com
UploadRar.com
Download 2
Share-online.biz
Rapidgator.net
KatFile.com
UploadRar.com

Tracklist:

1 - Police Truck - 2:23
2 - Too Drunk To Fuck - 2:38
3 - California Über Alles - 3:26
4 - The Man With The Dogs - 3:01
5 - Insight - 1:38
6 - Life Sentence - 2:38
7 - A Child And His Lawnmower - 0:54
8 - Holiday In Cambodia - 3:43
9 - I Fought The Law - 2:17
10 - Saturday Night Holocaust - 4:22
11 - Pull My Strings - 5:53
12 - Short Songs - 0:20
13 - Straight A's - 2:05
14 - Kinky Sex Makes The World Go 'Round - 4:17
15 - The Prey - 3:44
16 - Night Of The Living Rednecks - 5:10
17 - Buzzbomb From Pasadena - 2:20

EAC-Log, CUE-Sheed & NFO:

Click to open spoiler
????? EAC ?? ??????????, ??????????? 3. ?????? 2009, 14:34 ??? ?????:
Dead Kennedys / Give Me Convenience Or Give Me Death

????????: Optiarc DVD RW AD-7203S Adapter: 2 ID: 0
????? ??????: ??????????? (C2: ???, ?????? ?????: ??, ?????????? ????: ??)
????????? ???????? ??? ??????: 48
??????????? ?????? ??????? Lead-in ? Lead-out : ???

???????? ??????: ?????????? WAV-????????
44.100 ??; 16 ???; ??????

?????? ?????????:
?????????? ??????????? ??????? ??????? : ??
???????? ?????? ? ??????? ? ?????? ? ????? : ???
?????????? Win32-????????? ??? Win NT/2000

?????????????? ????????? ?????????? ? ????????? ?? ???????
????????? ????????
??? ????? D:\Z_DISTRIBUTIVES\downtor\Dead Kennedys [discography]\Give Me Convenience\Dead Kennedys – Give Me Convenience Or Give Me Death.wav

??????? ??????? 100.0 %
???????? ????????? 99.9 %
CRC D3F0D4FE
???????????… OK

?????? ?? ?????????

????? ??????

REM GENRE Hardcore
REM DATE 1987
REM DISCID E30BFC11
REM COMMENT “ExactAudioCopy v0.95b4”
PERFORMER “Dead Kennedys”
TITLE “Give Me Convenience Or Give Me Death”
FILE “Dead Kennedys – Give Me Convenience Or Give Me Death.flac” WAVE
TRACK 01 AUDIO
TITLE “Police Truck”
PERFORMER “Dead Kennedys”
INDEX 01 00:00:00
TRACK 02 AUDIO
TITLE “Too Drunk To Fuck”
PERFORMER “Dead Kennedys”
INDEX 01 02:24:47
TRACK 03 AUDIO
TITLE “California Über Alles”
PERFORMER “Dead Kennedys”
INDEX 01 05:04:12
TRACK 04 AUDIO
TITLE “The Man With The Dogs”
PERFORMER “Dead Kennedys”
INDEX 01 08:30:30
TRACK 05 AUDIO
TITLE “Insight”
PERFORMER “Dead Kennedys”
INDEX 01 11:32:52
TRACK 06 AUDIO
TITLE “Life Sentence”
PERFORMER “Dead Kennedys”
INDEX 01 13:12:30
TRACK 07 AUDIO
TITLE “A Child And His Lawnmower”
PERFORMER “Dead Kennedys”
INDEX 01 15:51:30
TRACK 08 AUDIO
TITLE “Holiday In Cambodia”
PERFORMER “Dead Kennedys”
INDEX 01 16:46:37
TRACK 09 AUDIO
TITLE “I Fought The Law”
PERFORMER “Dead Kennedys”
INDEX 01 20:30:05
TRACK 10 AUDIO
TITLE “Saturday Night Holocaust”
PERFORMER “Dead Kennedys”
INDEX 01 22:48:52
TRACK 11 AUDIO
TITLE “Pull My Strings [Live]”
PERFORMER “Dead Kennedys”
INDEX 01 27:07:45
TRACK 12 AUDIO
TITLE “Short Songs [Live]”
PERFORMER “Dead Kennedys”
INDEX 01 32:52:17
TRACK 13 AUDIO
TITLE “Straight A’s [Live]”
PERFORMER “Dead Kennedys”
INDEX 01 33:19:50
TRACK 14 AUDIO
TITLE “Kinky Sex Makes The World Go ‘Round”
PERFORMER “Dead Kennedys”
INDEX 01 35:33:05
TRACK 15 AUDIO
TITLE “The Prey”
PERFORMER “Dead Kennedys”
INDEX 01 39:47:55
TRACK 16 AUDIO
TITLE “Night of the Living Rednecks [Live]”
PERFORMER “Dead Kennedys”
INDEX 01 43:35:42
TRACK 17 AUDIO
TITLE “Buzzbomb From Pasadena”
PERFORMER “Dead Kennedys”
INDEX 01 48:47:05


Spread the Download

Leave a Reply

Your email address will not be published. Required fields are marked *

Enter the text from the image below
 

This site uses Akismet to reduce spam. Learn how your comment data is processed.