Black Sabbath – Black Sabbath Vol 4 (Remastered)




[Total: 0    Average: 0/5]

Artist: Black Sabbath
Year: 1972/2016
Genre: Metal
Notes: Discogs
Add. Notes: Remastered
Cover incl.: Yes
Encoder: FLAC
Bitrate: ~900 kBit/s (44.1 kHz/16 Bit/s)
Log & Cue incl.: Yes
Size: 275,23 MB
Password: “slam” (without ” “)


All Downloads/Hosters are compatible

Download 1
Share-online.biz
Rapidgator.net
KatFile.com
UploadRar.com
Download 2
Share-online.biz
Rapidgator.net
KatFile.com
UploadRar.com

Tracklist:

1 - Wheels Of Confusion 
2 - Tomorrow's Dream 
3 - Changes 
4 - FX 
5 - Supernaut 
6 - Snowblind 
7 - Cornucopia 
8 - Laguna Sunrise 
9 - St. Vitus' Dance 
10 - Under The Sun

EAC-Log, CUE-Sheed & NFO:

Click to open spoiler
X Lossless Decoder version 20151214 (149.1)

XLD extraction logfile from 2016-08-09 18:49:58 -0400

Black Sabbath / Vol 4

Used drive : MATSHITA DVD-R UJ-898 (revision HE13)
Media type : Pressed CD

Ripper mode : XLD Secure Ripper
Disable audio cache : OK for the drive with a cache less than 1375KiB
Make use of C2 pointers : NO
Read offset correction : 102
Max retry count : 20
Gap status : Analyzed, Appended (except HTOA)

TOC of the extracted CD
Track | Start | Length | Start sector | End sector
———————————————————
1 | 00:00:00 | 07:48:69 | 0 | 35168
2 | 07:48:69 | 03:08:58 | 35169 | 49326
3 | 10:57:52 | 04:42:37 | 49327 | 70513
4 | 15:40:14 | 01:38:50 | 70514 | 77913
5 | 17:18:64 | 04:31:09 | 77914 | 98247
6 | 21:49:73 | 05:26:25 | 98248 | 122722
7 | 27:16:23 | 03:52:16 | 122723 | 140138
8 | 31:08:39 | 02:50:14 | 140139 | 152902
9 | 33:58:53 | 02:28:00 | 152903 | 164002
10 | 36:26:53 | 05:52:19 | 164003 | 190421

AccurateRip Summary
Disc not found in AccurateRip DB.

All Tracks
Album gain : -4.00 dB
Peak : 0.970490
Statistics
Read error : 0
Jitter error (maybe fixed) : 0
Retry sector count : 2
Damaged sector count : 0

Track 01
Filename : /Users/joshuacrowder/Desktop/Josh’s CD Rips/Black Sabbath/2016 Deluxe Editions/Black Sabbath – 1972 – Vol 4 [WAV]/01 Wheels Of Confusion.wav
Pre-gap length : 00:02:00

Track gain : -4.29 dB
Peak : 0.970490
CRC32 hash (test run) : 847DB952
CRC32 hash : 847DB952
CRC32 hash (skip zero) : 62D16829
AccurateRip v1 signature : 83587634
AccurateRip v2 signature : 96FC525D
->Track not present in AccurateRip database.
Statistics
Read error : 0
Jitter error (maybe fixed) : 0
Retry sector count : 0
Damaged sector count : 0

Track 02
Filename : /Users/joshuacrowder/Desktop/Josh’s CD Rips/Black Sabbath/2016 Deluxe Editions/Black Sabbath – 1972 – Vol 4 [WAV]/02 Tomorrow’s Dream.wav

Track gain : -3.75 dB
Peak : 0.958130
CRC32 hash (test run) : E1BB2337
CRC32 hash : E1BB2337
CRC32 hash (skip zero) : 899D29C8
AccurateRip v1 signature : 4F017F3A
AccurateRip v2 signature : 7B895DC6
->Track not present in AccurateRip database.
Statistics
Read error : 0
Jitter error (maybe fixed) : 0
Retry sector count : 0
Damaged sector count : 0

Track 03
Filename : /Users/joshuacrowder/Desktop/Josh’s CD Rips/Black Sabbath/2016 Deluxe Editions/Black Sabbath – 1972 – Vol 4 [WAV]/03 Changes.wav

Track gain : -3.14 dB
Peak : 0.970428
CRC32 hash (test run) : B3164AEB
CRC32 hash : B3164AEB
CRC32 hash (skip zero) : 7A333342
AccurateRip v1 signature : AAE73854
AccurateRip v2 signature : 8756815D
->Track not present in AccurateRip database.
Statistics
Read error : 0
Jitter error (maybe fixed) : 0
Retry sector count : 0
Damaged sector count : 0

Track 04
Filename : /Users/joshuacrowder/Desktop/Josh’s CD Rips/Black Sabbath/2016 Deluxe Editions/Black Sabbath – 1972 – Vol 4 [WAV]/04 FX.wav

Track gain : 0.52 dB
Peak : 0.723633
CRC32 hash (test run) : CEA47E55
CRC32 hash : CEA47E55
CRC32 hash (skip zero) : 9CDFF638
AccurateRip v1 signature : FC4DB038
AccurateRip v2 signature : 13A85D74
->Track not present in AccurateRip database.
Statistics
Read error : 0
Jitter error (maybe fixed) : 0
Retry sector count : 0
Damaged sector count : 0

Track 05
Filename : /Users/joshuacrowder/Desktop/Josh’s CD Rips/Black Sabbath/2016 Deluxe Editions/Black Sabbath – 1972 – Vol 4 [WAV]/05 Supernaut.wav

Track gain : -5.14 dB
Peak : 0.970459
CRC32 hash (test run) : 48CF21CC
CRC32 hash : 48CF21CC
CRC32 hash (skip zero) : C610DEF9
AccurateRip v1 signature : 7521C092
AccurateRip v2 signature : 82C6CF9D
->Track not present in AccurateRip database.
Statistics
Read error : 0
Jitter error (maybe fixed) : 0
Retry sector count : 0
Damaged sector count : 0

Track 06
Filename : /Users/joshuacrowder/Desktop/Josh’s CD Rips/Black Sabbath/2016 Deluxe Editions/Black Sabbath – 1972 – Vol 4 [WAV]/06 Snowblind.wav

Track gain : -3.68 dB
Peak : 0.970428
CRC32 hash (test run) : FA2677F2
CRC32 hash : FA2677F2
CRC32 hash (skip zero) : FB9E2983
AccurateRip v1 signature : 6E2A7A87
AccurateRip v2 signature : 0596C618
->Track not present in AccurateRip database.
Statistics
Read error : 0
Jitter error (maybe fixed) : 0
Retry sector count : 0
Damaged sector count : 0

Track 07
Filename : /Users/joshuacrowder/Desktop/Josh’s CD Rips/Black Sabbath/2016 Deluxe Editions/Black Sabbath – 1972 – Vol 4 [WAV]/07 Cornucopia.wav

Track gain : -3.29 dB
Peak : 0.956543
CRC32 hash (test run) : D2B871E0
CRC32 hash : D2B871E0
CRC32 hash (skip zero) : BA24924C
AccurateRip v1 signature : D5D68A3E
AccurateRip v2 signature : 9BD5A305
->Track not present in AccurateRip database.
Statistics
Read error : 0
Jitter error (maybe fixed) : 0
Retry sector count : 0
Damaged sector count : 0

Track 08
Filename : /Users/joshuacrowder/Desktop/Josh’s CD Rips/Black Sabbath/2016 Deluxe Editions/Black Sabbath – 1972 – Vol 4 [WAV]/08 Laguna Sunrise.wav

Track gain : -1.86 dB
Peak : 0.840973
CRC32 hash (test run) : BB4394A9
CRC32 hash : BB4394A9
CRC32 hash (skip zero) : 3F77C733
AccurateRip v1 signature : 55D00280
AccurateRip v2 signature : AA42AFAA
->Track not present in AccurateRip database.
Statistics
Read error : 0
Jitter error (maybe fixed) : 0
Retry sector count : 0
Damaged sector count : 0

Track 09
Filename : /Users/joshuacrowder/Desktop/Josh’s CD Rips/Black Sabbath/2016 Deluxe Editions/Black Sabbath – 1972 – Vol 4 [WAV]/09 St. Vitus’ Dance.wav

Track gain : -3.56 dB
Peak : 0.970367
CRC32 hash (test run) : 0E7F6B74
CRC32 hash : 0E7F6B74
CRC32 hash (skip zero) : 1D7B68A0
AccurateRip v1 signature : F4445885
AccurateRip v2 signature : E5530F40
->Track not present in AccurateRip database.
Statistics
Read error : 0
Jitter error (maybe fixed) : 0
Retry sector count : 0
Damaged sector count : 0

Track 10
Filename : /Users/joshuacrowder/Desktop/Josh’s CD Rips/Black Sabbath/2016 Deluxe Editions/Black Sabbath – 1972 – Vol 4 [WAV]/10 Under The Sun.wav

Track gain : -3.86 dB
Peak : 0.970459
CRC32 hash (test run) : DCE90632
CRC32 hash : DCE90632
CRC32 hash (skip zero) : C982DFC0
AccurateRip v1 signature : CAC69AFA
AccurateRip v2 signature : C456E860
->Track not present in AccurateRip database.
Statistics
Read error : 0
Jitter error (maybe fixed) : 0
Retry sector count : 2
Damaged sector count : 0

No errors occurred

End of status report

—–BEGIN XLD SIGNATURE—–
W_3CEDHuiVlqrHynqrbDpinqLhHRDgQ_S1khl0NsSVsF3.G5gbYEW3aYV9ZlOY_NGQ96qAUmZl_Ph_S4pkIa4UrHoFe4e_14YrEXXJ0
—–END XLD SIGNATURE—–

TITLE “Vol 4”
PERFORMER “Black Sabbath”
CATALOG 0081227946616
REM GENRE “Heavy Metal”
REM DATE “1972”
REM DISCNUMBER 1
REM TOTALDISCS 1
REM DISCID 7609EA0A
REM REPLAYGAIN_ALBUM_GAIN -4.00 dB
REM REPLAYGAIN_ALBUM_PEAK 0.970490
FILE “01 Wheels Of Confusion.wav” WAVE
TRACK 01 AUDIO
TITLE “Wheels Of Confusion”
ISRC GBAJE7200128
REM COMMENT “2016 Reissue (RR2 2602)”
REM REPLAYGAIN_TRACK_GAIN -4.29 dB
REM REPLAYGAIN_TRACK_PEAK 0.970490
INDEX 01 00:00:00
FILE “02 Tomorrow’s Dream.wav” WAVE
TRACK 02 AUDIO
TITLE “Tomorrow’s Dream”
ISRC GBAJE7200129
REM COMMENT “2016 Reissue (RR2 2602)”
REM REPLAYGAIN_TRACK_GAIN -3.75 dB
REM REPLAYGAIN_TRACK_PEAK 0.958130
INDEX 01 00:00:00
FILE “03 Changes.wav” WAVE
TRACK 03 AUDIO
TITLE “Changes”
ISRC GBAJE7200130
REM COMMENT “2016 Reissue (RR2 2602)”
REM REPLAYGAIN_TRACK_GAIN -3.14 dB
REM REPLAYGAIN_TRACK_PEAK 0.970428
INDEX 01 00:00:00
FILE “04 FX.wav” WAVE
TRACK 04 AUDIO
TITLE “FX”
ISRC GBAJE7200131
REM COMMENT “2016 Reissue (RR2 2602)”
REM REPLAYGAIN_TRACK_GAIN 0.52 dB
REM REPLAYGAIN_TRACK_PEAK 0.723633
INDEX 01 00:00:00
FILE “05 Supernaut.wav” WAVE
TRACK 05 AUDIO
TITLE “Supernaut”
ISRC GBAJE7200132
REM COMMENT “2016 Reissue (RR2 2602)”
REM REPLAYGAIN_TRACK_GAIN -5.14 dB
REM REPLAYGAIN_TRACK_PEAK 0.970459
INDEX 01 00:00:00
FILE “06 Snowblind.wav” WAVE
TRACK 06 AUDIO
TITLE “Snowblind”
ISRC GBAJE7200133
REM COMMENT “2016 Reissue (RR2 2602)”
REM REPLAYGAIN_TRACK_GAIN -3.68 dB
REM REPLAYGAIN_TRACK_PEAK 0.970428
INDEX 01 00:00:00
FILE “07 Cornucopia.wav” WAVE
TRACK 07 AUDIO
TITLE “Cornucopia”
ISRC GBAJE7200134
REM COMMENT “2016 Reissue (RR2 2602)”
REM REPLAYGAIN_TRACK_GAIN -3.29 dB
REM REPLAYGAIN_TRACK_PEAK 0.956543
INDEX 01 00:00:00
FILE “08 Laguna Sunrise.wav” WAVE
TRACK 08 AUDIO
TITLE “Laguna Sunrise”
ISRC GBAJE7200135
REM COMMENT “2016 Reissue (RR2 2602)”
REM REPLAYGAIN_TRACK_GAIN -1.86 dB
REM REPLAYGAIN_TRACK_PEAK 0.840973
INDEX 01 00:00:00
FILE “09 St. Vitus’ Dance.wav” WAVE
TRACK 09 AUDIO
TITLE “St. Vitus’ Dance”
ISRC GBAJE7200136
REM COMMENT “2016 Reissue (RR2 2602)”
REM REPLAYGAIN_TRACK_GAIN -3.56 dB
REM REPLAYGAIN_TRACK_PEAK 0.970367
INDEX 01 00:00:00
FILE “10 Under The Sun.wav” WAVE
TRACK 10 AUDIO
TITLE “Under The Sun”
ISRC GBAJE7200137
REM COMMENT “2016 Reissue (RR2 2602)”
REM REPLAYGAIN_TRACK_GAIN -3.86 dB
REM REPLAYGAIN_TRACK_PEAK 0.970459
INDEX 01 00:00:00


Spread the Download

Leave a Reply

Your email address will not be published. Required fields are marked *

Enter the text from the image below
 

This site uses Akismet to reduce spam. Learn how your comment data is processed.