Billy Idol – Rebel Yell (Special Edition)




[Total: 0    Average: 0/5]

Artist: Billy Idol
Year: 1983/1994
Genre: Rock
Notes: Discogs
Add. Notes: Special Edition
Encoder: FLAC
Bitrate: ~900 kBit/s (44.1 kHz/16 Bit/s)
Size: 422,53 MB
Password: “slam” (without ” “)


http://www.share-online.biz/dl/J47UHKRPDQ2Y
https://rapidgator.net/file/ced5d2b2d3a32a6056b106f6c6094a4b
https://uploadbyte.com/n3c0n6r3f3op
https://hitfile.net/ZJYO3gV

Tracklist:

1 - Rebel Yell - 4:45
2 - Daytime Drama - 4:02
3 - Eyes Without A Face - 4:58
4 - Blue Highway - 5:05
5 - Flesh For Fantasy - 4:37
6 - Catch My Fall - 3:57
7 - Crank Call - 3:56
8 - (Do Not) Stand In The Shadows - 3:10
9 - The Dead Next Door - 3:45

EAC-Log, CUE-Sheed & NFO:

Click to open spoiler
Exact Audio Copy V1.0 beta 3 from 29. August 2011

EAC extraction logfile from 20. December 2012, 23:01

Billy Idol / Rebel Yell

Used drive : Optiarc BD RW BD-5300S Adapter: 3 ID: 0

Read mode : Secure
Utilize accurate stream : Yes
Defeat audio cache : Yes
Make use of C2 pointers : No

Read offset correction : 6
Overread into Lead-In and Lead-Out : No
Fill up missing offset samples with silence : Yes
Delete leading and trailing silent blocks : No
Null samples used in CRC calculations : Yes
Used interface : Installed external ASPI interface

Used output format : User Defined Encoder
Selected bitrate : 1024 kBit/s
Quality : High
Add ID3 tag : No
Command line compressor : C:\Program Files (x86)\Exact Audio Copy\Flac\flac.exe
Additional command line options : -8 -V -T “Date=%year%” -T “Genre=%genre%” -T “COMMENT=ripped by bvstudio®” %source%

TOC of the extracted CD

Track | Start | Length | Start sector | End sector
———————————————————
1 | 0:00.00 | 4:50.47 | 0 | 21796
2 | 4:50.47 | 4:04.53 | 21797 | 40149
3 | 8:55.25 | 4:59.37 | 40150 | 62611
4 | 13:54.62 | 5:07.00 | 62612 | 85636
5 | 19:01.62 | 4:39.00 | 85637 | 106561
6 | 23:40.62 | 3:43.00 | 106562 | 123286
7 | 27:23.62 | 3:58.30 | 123287 | 141166
8 | 31:22.17 | 3:11.45 | 141167 | 155536
9 | 34:33.62 | 3:41.13 | 155537 | 172124

Range status and errors

Selected range

Filename F:\Billy Idol\1983 – Rebel Yell\Billy Idol – Rebel Yell.wav

Peak level 95.3 %
Extraction speed 3.0 X
Range quality 100.0 %
Test CRC 65D4C205
Copy CRC 65D4C205
Copy OK

No errors occurred

AccurateRip summary

Track 1 accurately ripped (confidence 3) [4437A24E] (AR v2)
Track 2 accurately ripped (confidence 3) [A0512416] (AR v2)
Track 3 accurately ripped (confidence 3) [FCBFD200] (AR v2)
Track 4 accurately ripped (confidence 3) [7005D195] (AR v2)
Track 5 accurately ripped (confidence 3) [AE4F460B] (AR v2)
Track 6 accurately ripped (confidence 3) [5B438C3B] (AR v2)
Track 7 accurately ripped (confidence 3) [65B4B29D] (AR v2)
Track 8 accurately ripped (confidence 3) [2F3D6BED] (AR v2)
Track 9 accurately ripped (confidence 3) [F2A09E5A] (AR v2)

All tracks accurately ripped

End of status report

==== Log checksum F6BBC53DE857EE2DEEC2396716285F4147A87AC8FF7D97A59885EDC20DCB10DC ====

REM GENRE Punk
REM DATE 1983
REM DISCID 7408F709
REM COMMENT “ExactAudioCopy v1.0b3”
CATALOG 0000000000000
PERFORMER “Billy Idol”
TITLE “Rebel Yell”
FILE “Billy Idol – Rebel Yell.flac” WAVE
TRACK 01 AUDIO
TITLE “Rebel Yell”
PERFORMER “Billy Idol”
INDEX 01 00:00:00
TRACK 02 AUDIO
TITLE “Daytime Drama”
PERFORMER “Billy Idol”
INDEX 00 04:47:47
INDEX 01 04:50:47
TRACK 03 AUDIO
TITLE “Eyes Without A Face”
PERFORMER “Billy Idol”
INDEX 00 08:53:25
INDEX 01 08:55:25
TRACK 04 AUDIO
TITLE “Blue Highway”
PERFORMER “Billy Idol”
INDEX 00 13:53:62
INDEX 01 13:54:62
TRACK 05 AUDIO
TITLE “Flesh For Fantasy”
PERFORMER “Billy Idol”
INDEX 00 19:01:25
INDEX 01 19:01:62
TRACK 06 AUDIO
TITLE “Catch My Fall”
PERFORMER “Billy Idol”
INDEX 00 23:40:00
INDEX 01 23:40:62
TRACK 07 AUDIO
TITLE “Crank Call”
PERFORMER “Billy Idol”
INDEX 00 27:22:62
INDEX 01 27:23:62
TRACK 08 AUDIO
TITLE “{Do Not} Stand In The Shadows”
PERFORMER “Billy Idol”
INDEX 00 31:21:17
INDEX 01 31:22:17
TRACK 09 AUDIO
TITLE “The Dead Next Door”
PERFORMER “Billy Idol”
INDEX 00 34:32:62
INDEX 01 34:33:62

Spread the Download

Leave a Reply

Your email address will not be published. Required fields are marked *

Enter the text from the image below
 

This site uses Akismet to reduce spam. Learn how your comment data is processed.