Anti-Flag – Which Side Are You On? E.P.




  • [Total: 0    Average: 0/5]

    Artist: Anti-Flag
    Year: 2009
    Genre: Punk
    Notes: Discogs
    Add. Notes:
    Encoder: FLAC
    Bitrate: ~1000 kBit/s (44.1 kHz/16 Bit/s)
    Size: 71 MB
    Password: “slam” (without ” “)


    http://www.share-online.biz/dl/9IL99KRP1IT
    https://rapidgator.net/file/7a70e7bbc654eef2a91aa99a0257f651
    https://uploadbyte.com/cz9l95r073u7
    https://hitfile.net/IAsm9eW

    Tracklist:

    1 - Bring Down Their Wall Again - 
    3:13
    2 - The Weathermen Know Which 
    Way The Wind Blows - 
    2:44
    3 - Africom - 3:34
    

    EAC-Log, CUE-Sheed & NFO:

    Click to open spoiler
    Exact Audio Copy V0.99 prebeta 4 from 23. January 2008

    EAC extraction logfile from 8. June 2009, 18:45

    Anti-Flag / Which Side Are You On? E.P.

    Used drive : SONY DVD RW DRU-720A Adapter: 0 ID: 0

    Read mode : Secure
    Utilize accurate stream : Yes
    Defeat audio cache : Yes
    Make use of C2 pointers : No

    Read offset correction : 12
    Overread into Lead-In and Lead-Out : No
    Fill up missing offset samples with silence : Yes
    Delete leading and trailing silent blocks : No
    Null samples used in CRC calculations : Yes
    Used interface : Native Win32 interface for Win NT & 2000
    Gap handling : Appended to previous track

    Used output format : User Defined Encoder
    Selected bitrate : 192 kBit/s
    Quality : High
    Add ID3 tag : No
    Command line compressor : C:\Program Files\Exact Audio Copy\Flac\flac.exe
    Additional command line options : -V -8 -T “artist=%a” -T “title=%t” -T “album=%g” -T “date=%y” -T “tracknumber=%n” -T “genre=%m” %s

    TOC of the extracted CD

    Track | Start | Length | Start sector | End sector
    ———————————————————
    1 | 0:00.00 | 3:13.36 | 0 | 14510
    2 | 3:13.36 | 2:44.72 | 14511 | 26882
    3 | 5:58.33 | 3:34.39 | 26883 | 42971

    Track 1

    Filename C:\rips\01 – Bring Down Their Wall Again.wav

    Pre-gap length 0:00:02.00

    Peak level 98.8 %
    Track quality 100.0 %
    Test CRC 35F58AF3
    Copy CRC 35F58AF3
    Track not present in AccurateRip database
    Copy OK

    Track 2

    Filename C:\rips\02 – The Weathermen Know Which Way The Wind Blows.wav

    Peak level 98.8 %
    Track quality 100.0 %
    Test CRC DD960D52
    Copy CRC DD960D52
    Track not present in AccurateRip database
    Copy OK

    Track 3

    Filename C:\rips\03 – Africom.wav

    Peak level 98.8 %
    Track quality 99.9 %
    Test CRC 8BE2E5E6
    Copy CRC 8BE2E5E6
    Track not present in AccurateRip database
    Copy OK

    None of the tracks are present in the AccurateRip database

    No errors occurred

    End of status report

    REM GENRE “Punk Rock”
    REM DATE 2009
    REM DISCID 1A023C03
    REM COMMENT “ExactAudioCopy v0.99pb4”
    PERFORMER “Anti-Flag”
    TITLE “Which Side Are You On? E.P.”
    FILE “01 – Bring Down Their Wall Again.wav” WAVE
    TRACK 01 AUDIO
    TITLE “Bring Down Their Wall Again”
    PERFORMER “Anti-Flag”
    INDEX 01 00:00:00
    FILE “02 – The Weathermen Know Which Way The Wind Blows.wav” WAVE
    TRACK 02 AUDIO
    TITLE “The Weathermen Know Which Way The Wind Blows”
    PERFORMER “Anti-Flag”
    INDEX 01 00:00:00
    FILE “03 – Africom.wav” WAVE
    TRACK 03 AUDIO
    TITLE “Africom”
    PERFORMER “Anti-Flag”
    INDEX 01 00:00:00

    Author: Chaos

    Leave a Reply

    Your email address will not be published. Required fields are marked *

    This site uses Akismet to reduce spam. Learn how your comment data is processed.