Anti-Flag – Underground Network




  • [Total: 0    Average: 0/5]

    Artist: Anti-Flag
    Year: 2001
    Genre: Punk
    Notes: Discogs
    Add. Notes:
    Encoder: FLAC
    Bitrate: ~1000 kBit/s (44.1 kHz/16 Bit/s)
    Size: 274,32 MB
    Password: “slam” (without ” “)


    Tracklist:

    1 - Angry, Young And Poor - 2:42
    2 - This Machine Kills Facists - 1:38
    3 - Underground Network - 4:03
    4 - Daddy Warbux - 2:16
    5 - Vieques Puerto Rico: Bikini Revisited - 3:11
    6 - Stars And Stripes - 3:33
    7 - Watch The Right - 2:52
    8 - The Panama Deception - 3:03
    9 - Culture Revolution - 3:41
    10 - Spaz's House Destruction Party - 3:04
    11 - Bring Out Your Dead - 2:14
    12 - A Start - 2:45
    13 - Until It Happens To You - 2:48
    

    EAC-Log, CUE-Sheed & NFO:

    Click to open spoiler
    Exact Audio Copy V0.99 prebeta 3 from 28. July 2007

    EAC extraction logfile from 30. March 2009, 14:07

    Anti-Flag / Underground Network

    Used drive : ATAPI DVD DD 8X16X8X16 Adapter: 3 ID: 0

    Read mode : Secure
    Utilize accurate stream : Yes
    Defeat audio cache : Yes
    Make use of C2 pointers : No

    Read offset correction : 618
    Overread into Lead-In and Lead-Out : No
    Fill up missing offset samples with silence : Yes
    Delete leading and trailing silent blocks : No
    Null samples used in CRC calculations : Yes
    Used interface : Native Win32 interface for Win NT & 2000
    Gap handling : Appended to previous track

    Used output format : User Defined Encoder
    Selected bitrate : 128 kBit/s
    Quality : High
    Add ID3 tag : No
    Command line compressor : C:\Program Files\Exact Audio Copy\Flac\flac.exe
    Additional command line options : -V -8 -T “artist=%a” -T “title=%t” -T “album=%g” -T “date=%y” -T “tracknumber=%n” -T “genre=%m” %s

    TOC of the extracted CD

    Track | Start | Length | Start sector | End sector
    ———————————————————
    1 | 0:00.00 | 2:42.43 | 0 | 12192
    2 | 2:42.43 | 1:38.09 | 12193 | 19551
    3 | 4:20.52 | 4:03.65 | 19552 | 37841
    4 | 8:24.42 | 2:16.00 | 37842 | 48041
    5 | 10:40.42 | 3:11.01 | 48042 | 62367
    6 | 13:51.43 | 3:33.60 | 62368 | 78402
    7 | 17:25.28 | 2:52.59 | 78403 | 91361
    8 | 20:18.12 | 3:03.24 | 91362 | 105110
    9 | 23:21.36 | 3:41.70 | 105111 | 121755
    10 | 27:03.31 | 3:04.05 | 121756 | 135560
    11 | 30:07.36 | 2:14.67 | 135561 | 145677
    12 | 32:22.28 | 2:45.68 | 145678 | 158120
    13 | 35:08.21 | 2:46.36 | 158121 | 170606

    Track 1

    Filename D:\Music\Underground Network [flac]\01 – Angry Young And Poor.wav

    Pre-gap length 0:00:02.00

    Peak level 98.8 %
    Track quality 100.0 %
    Test CRC 76746AFA
    Copy CRC 76746AFA
    Accurately ripped (confidence 1) [0633F144]
    Copy OK

    Track 2

    Filename D:\Music\Underground Network [flac]\02 – This Machine Kills Fascists.wav

    Pre-gap length 0:00:07.86

    Peak level 98.8 %
    Track quality 100.0 %
    Test CRC 127847B1
    Copy CRC 127847B1
    Accurately ripped (confidence 1) [1BBC8127]
    Copy OK

    Track 3

    Filename D:\Music\Underground Network [flac]\03 – Underground Network.wav

    Pre-gap length 0:00:07.86

    Peak level 98.8 %
    Track quality 100.0 %
    Test CRC 315BEB23
    Copy CRC 315BEB23
    Accurately ripped (confidence 1) [9207DBBF]
    Copy OK

    Track 4

    Filename D:\Music\Underground Network [flac]\04 – Daddy Warbux.wav

    Pre-gap length 0:00:07.86

    Peak level 98.8 %
    Track quality 100.0 %
    Test CRC 1D782302
    Copy CRC 1D782302
    Accurately ripped (confidence 1) [452EB988]
    Copy OK

    Track 5

    Filename D:\Music\Underground Network [flac]\05 – Vieques, Puerto Rico (Bikini Revisited).wav

    Pre-gap length 0:00:07.86

    Peak level 98.8 %
    Track quality 100.0 %
    Test CRC 152EEAAD
    Copy CRC 152EEAAD
    Accurately ripped (confidence 1) [F89890B7]
    Copy OK

    Track 6

    Filename D:\Music\Underground Network [flac]\06 – Stars And Stripes.wav

    Pre-gap length 0:00:07.86

    Peak level 98.8 %
    Track quality 100.0 %
    Test CRC EC31DECE
    Copy CRC EC31DECE
    Accurately ripped (confidence 1) [1692122E]
    Copy OK

    Track 7

    Filename D:\Music\Underground Network [flac]\07 – Watch The Right.wav

    Pre-gap length 0:00:07.86

    Peak level 98.8 %
    Track quality 100.0 %
    Test CRC 8EF2DD32
    Copy CRC 8EF2DD32
    Accurately ripped (confidence 1) [C44CD038]
    Copy OK

    Track 8

    Filename D:\Music\Underground Network [flac]\08 – The Panama Deception.wav

    Pre-gap length 0:00:07.86

    Peak level 100.0 %
    Track quality 100.0 %
    Test CRC 13CFA9B4
    Copy CRC 13CFA9B4
    Accurately ripped (confidence 1) [C9999A03]
    Copy OK

    Track 9

    Filename D:\Music\Underground Network [flac]\09 – Culture Revolution.wav

    Pre-gap length 0:00:07.86

    Peak level 98.8 %
    Track quality 100.0 %
    Test CRC AB6EB78B
    Copy CRC AB6EB78B
    Accurately ripped (confidence 1) [0B382414]
    Copy OK

    Track 10

    Filename D:\Music\Underground Network [flac]\10 – Spaz’s House Destruction Party.wav

    Pre-gap length 0:00:07.86

    Peak level 98.8 %
    Track quality 100.0 %
    Test CRC AC2D569A
    Copy CRC AC2D569A
    Accurately ripped (confidence 1) [78224D10]
    Copy OK

    Track 11

    Filename D:\Music\Underground Network [flac]\11 – Bring Out Your Dead.wav

    Pre-gap length 0:00:07.86

    Peak level 98.8 %
    Track quality 100.0 %
    Test CRC EA33C26B
    Copy CRC EA33C26B
    Accurately ripped (confidence 1) [6F13ACF8]
    Copy OK

    Track 12

    Filename D:\Music\Underground Network [flac]\12 – A Start.wav

    Pre-gap length 0:00:07.86

    Peak level 98.8 %
    Track quality 100.0 %
    Test CRC 9A3AFD55
    Copy CRC 9A3AFD55
    Accurately ripped (confidence 1) [25A2B18F]
    Copy OK

    Track 13

    Filename D:\Music\Underground Network [flac]\13 – Until It Happens To You.wav

    Pre-gap length 0:00:07.86

    Peak level 98.8 %
    Track quality 100.0 %
    Test CRC B305A9B1
    Copy CRC B305A9B1
    Accurately ripped (confidence 1) [DE29AB99]
    Copy OK

    All tracks accurately ripped

    No errors occurred

    End of status report

    REM GENRE Punk
    REM DATE 2001
    REM DISCID 8B08E20D
    REM COMMENT “ExactAudioCopy v0.99pb3”
    PERFORMER “Anti-Flag”
    TITLE “Underground Network”
    FILE “01 – Angry Young And Poor.wav” WAVE
    TRACK 01 AUDIO
    TITLE “Angry Young And Poor”
    PERFORMER “Anti-Flag”
    INDEX 01 00:00:00
    TRACK 02 AUDIO
    TITLE “This Machine Kills Fascists”
    PERFORMER “Anti-Flag”
    FLAGS DCP
    INDEX 00 02:34:53
    FILE “02 – This Machine Kills Fascists.wav” WAVE
    INDEX 01 00:00:00
    TRACK 03 AUDIO
    TITLE “Underground Network”
    PERFORMER “Anti-Flag”
    FLAGS DCP
    INDEX 00 01:30:19
    FILE “03 – Underground Network.wav” WAVE
    INDEX 01 00:00:00
    TRACK 04 AUDIO
    TITLE “Daddy Warbux”
    PERFORMER “Anti-Flag”
    FLAGS DCP
    INDEX 00 03:56:00
    FILE “04 – Daddy Warbux.wav” WAVE
    INDEX 01 00:00:00
    TRACK 05 AUDIO
    TITLE “Vieques, Puerto Rico (Bikini Revisited)”
    PERFORMER “Anti-Flag”
    FLAGS DCP
    INDEX 00 02:08:10
    FILE “05 – Vieques, Puerto Rico (Bikini Revisited).wav” WAVE
    INDEX 01 00:00:00
    TRACK 06 AUDIO
    TITLE “Stars And Stripes”
    PERFORMER “Anti-Flag”
    FLAGS DCP
    INDEX 00 03:03:11
    FILE “06 – Stars And Stripes.wav” WAVE
    INDEX 01 00:00:00
    TRACK 07 AUDIO
    TITLE “Watch The Right”
    PERFORMER “Anti-Flag”
    FLAGS DCP
    INDEX 00 03:25:70
    FILE “07 – Watch The Right.wav” WAVE
    INDEX 01 00:00:00
    TRACK 08 AUDIO
    TITLE “The Panama Deception”
    PERFORMER “Anti-Flag”
    FLAGS DCP
    INDEX 00 02:44:69
    FILE “08 – The Panama Deception.wav” WAVE
    INDEX 01 00:00:00
    TRACK 09 AUDIO
    TITLE “Culture Revolution”
    PERFORMER “Anti-Flag”
    FLAGS DCP
    INDEX 00 02:55:34
    FILE “09 – Culture Revolution.wav” WAVE
    INDEX 01 00:00:00
    TRACK 10 AUDIO
    TITLE “Spaz’s House Destruction Party”
    PERFORMER “Anti-Flag”
    FLAGS DCP
    INDEX 00 03:34:05
    FILE “10 – Spaz’s House Destruction Party.wav” WAVE
    INDEX 01 00:00:00
    TRACK 11 AUDIO
    TITLE “Bring Out Your Dead”
    PERFORMER “Anti-Flag”
    FLAGS DCP
    INDEX 00 02:56:15
    FILE “11 – Bring Out Your Dead.wav” WAVE
    INDEX 01 00:00:00
    TRACK 12 AUDIO
    TITLE “A Start”
    PERFORMER “Anti-Flag”
    FLAGS DCP
    INDEX 00 02:07:02
    FILE “12 – A Start.wav” WAVE
    INDEX 01 00:00:00
    TRACK 13 AUDIO
    TITLE “Until It Happens To You”
    PERFORMER “Anti-Flag”
    FLAGS DCP
    INDEX 00 02:38:03
    FILE “13 – Until It Happens To You.wav” WAVE
    INDEX 01 00:00:00

    Author: Chaos

    Leave a Reply

    Your email address will not be published. Required fields are marked *

    This site uses Akismet to reduce spam. Learn how your comment data is processed.