Anti-Flag – The Terror State




[Total: 0    Average: 0/5]

Artist: Anti-Flag
Year: 2003
Genre: Punk
Notes: Discogs
Add. Notes:
Encoder: FLAC
Bitrate: ~900 kBit/s (44.1 kHz/16 Bit/s)
Size: 268 MB
Password: “slam” (without ” “)


http://www.share-online.biz/dl/UMN89KRPBAX
https://rapidgator.net/file/ff0bd6fb579d4c5a13589ccd44a0eda7
https://uploadbyte.com/6xkpsshw7he2
https://hitfile.net/lTrOA3C

Tracklist:

1 - Turncoat - 2:10
2 - Rank-N-File - 3:46
3 - Post-War Breakout - 3:11
4 - Sold As Freedom - 2:16
5 - Power To The Peaceful - 2:57
6 - Mind The G.A.T.T. - 3:14
7 - You Can Kill The Protester, But 
You Can't Kill The 
Protest - 2:33
8 - When You Don't Control Your 
Government People 
Want To Kill You - 2:47
9 - Wake Up! - 2:35
10 - Tearing Down The Borders - 
3:07
11 - Death Of A Nation - 1:55
12 - Operation Iraqi Liberation 
(O.I.L.) - 2:21
13 - One People, One Struggle - 3:00

EAC-Log, CUE-Sheed & NFO:

Click to open spoiler
Exact Audio Copy V0.99 prebeta 3 from 28. July 2007

EAC extraction logfile from 30. March 2009, 13:09

Anti-Flag / The Terror State

Used drive : ATAPI DVD DD 8X16X8X16 Adapter: 3 ID: 0

Read mode : Secure
Utilize accurate stream : Yes
Defeat audio cache : Yes
Make use of C2 pointers : No

Read offset correction : 618
Overread into Lead-In and Lead-Out : No
Fill up missing offset samples with silence : Yes
Delete leading and trailing silent blocks : No
Null samples used in CRC calculations : Yes
Used interface : Native Win32 interface for Win NT & 2000
Gap handling : Appended to previous track

Used output format : User Defined Encoder
Selected bitrate : 128 kBit/s
Quality : High
Add ID3 tag : No
Command line compressor : C:\Program Files\Exact Audio Copy\Flac\flac.exe
Additional command line options : -V -8 -T “artist=%a” -T “title=%t” -T “album=%g” -T “date=%y” -T “tracknumber=%n” -T “genre=%m” %s

TOC of the extracted CD

Track | Start | Length | Start sector | End sector
———————————————————
1 | 0:00.00 | 2:10.10 | 0 | 9759
2 | 2:10.10 | 3:46.42 | 9760 | 26751
3 | 5:56.52 | 3:11.30 | 26752 | 41106
4 | 9:08.07 | 2:16.58 | 41107 | 51364
5 | 11:24.65 | 2:57.02 | 51365 | 64641
6 | 14:21.67 | 3:14.38 | 64642 | 79229
7 | 17:36.30 | 2:33.07 | 79230 | 90711
8 | 20:09.37 | 2:47.70 | 90712 | 103306
9 | 22:57.32 | 2:35.48 | 103307 | 114979
10 | 25:33.05 | 3:07.70 | 114980 | 129074
11 | 28:41.00 | 1:55.40 | 129075 | 137739
12 | 30:36.40 | 2:21.05 | 137740 | 148319
13 | 32:57.45 | 3:00.35 | 148320 | 161854

Track 1

Filename D:\Music\The Terror State [flac]\01 – Turncoat.wav

Pre-gap length 0:00:02.00

Peak level 100.0 %
Track quality 100.0 %
Test CRC D4DBAE65
Copy CRC D4DBAE65
Accurately ripped (confidence 11) [3E82BC56]
Copy OK

Track 2

Filename D:\Music\The Terror State [flac]\02 – Rank-N-File.wav

Pre-gap length 0:00:07.86

Peak level 100.0 %
Track quality 100.0 %
Test CRC FEFA6035
Copy CRC FEFA6035
Accurately ripped (confidence 11) [E09775C4]
Copy OK

Track 3

Filename D:\Music\The Terror State [flac]\03 – Post-War Breakout.wav

Pre-gap length 0:00:07.86

Peak level 100.0 %
Track quality 100.0 %
Test CRC 0AB34347
Copy CRC 0AB34347
Accurately ripped (confidence 10) [4F17C39E]
Copy OK

Track 4

Filename D:\Music\The Terror State [flac]\04 – Sold As Freedom.wav

Pre-gap length 0:00:07.86

Peak level 100.0 %
Track quality 100.0 %
Test CRC 0F997461
Copy CRC 0F997461
Accurately ripped (confidence 11) [408E9C64]
Copy OK

Track 5

Filename D:\Music\The Terror State [flac]\05 – Power To The Peaceful.wav

Pre-gap length 0:00:07.86

Peak level 100.0 %
Track quality 100.0 %
Test CRC 7996F107
Copy CRC 7996F107
Accurately ripped (confidence 11) [8D62D49C]
Copy OK

Track 6

Filename D:\Music\The Terror State [flac]\06 – Mind The G.A.T.T..wav

Pre-gap length 0:00:07.86

Peak level 100.0 %
Track quality 100.0 %
Test CRC 5C50937E
Copy CRC 5C50937E
Accurately ripped (confidence 11) [4EBA3506]
Copy OK

Track 7

Filename D:\Music\The Terror State [flac]\07 – You Can Kill The Protester, But You Can’t Kill The Protest.wav

Pre-gap length 0:00:07.86

Peak level 100.0 %
Track quality 99.9 %
Test CRC DFCCF302
Copy CRC DFCCF302
Accurately ripped (confidence 11) [D423ADA8]
Copy OK

Track 8

Filename D:\Music\The Terror State [flac]\08 – When You Don’t Control Your Government People Want To Kill You.wav

Pre-gap length 0:00:07.86

Peak level 100.0 %
Track quality 100.0 %
Test CRC 1EA91367
Copy CRC 1EA91367
Accurately ripped (confidence 11) [1C9239FA]
Copy OK

Track 9

Filename D:\Music\The Terror State [flac]\09 – Wake Up!.wav

Pre-gap length 0:00:07.86

Peak level 100.0 %
Track quality 100.0 %
Test CRC DEB412A4
Copy CRC DEB412A4
Accurately ripped (confidence 11) [9010509E]
Copy OK

Track 10

Filename D:\Music\The Terror State [flac]\10 – Tearing Down The Borders.wav

Pre-gap length 0:00:07.86

Peak level 100.0 %
Track quality 99.9 %
Test CRC 9AD77892
Copy CRC 9AD77892
Accurately ripped (confidence 10) [0B3E38DF]
Copy OK

Track 11

Filename D:\Music\The Terror State [flac]\11 – Death Of A Nation.wav

Pre-gap length 0:00:07.86

Peak level 100.0 %
Track quality 99.9 %
Test CRC BC5BF919
Copy CRC BC5BF919
Accurately ripped (confidence 11) [71F1003F]
Copy OK

Track 12

Filename D:\Music\The Terror State [flac]\12 – Operation Iraqi Liberation (O.I.L.).wav

Pre-gap length 0:00:07.86

Peak level 100.0 %
Track quality 100.0 %
Test CRC ACBF75DB
Copy CRC ACBF75DB
Accurately ripped (confidence 11) [9A92EAE8]
Copy OK

Track 13

Filename D:\Music\The Terror State [flac]\13 – One People, One Struggle.wav

Pre-gap length 0:00:07.86

Peak level 100.0 %
Track quality 100.0 %
Test CRC DFAE4D5B
Copy CRC DFAE4D5B
Accurately ripped (confidence 8) [EE98978B]
Copy OK

All tracks accurately ripped

No errors occurred

End of status report

REM GENRE Punk
REM DATE 2003
REM DISCID B7086E0D
REM COMMENT “ExactAudioCopy v0.99pb3”
PERFORMER “Anti-Flag”
TITLE “The Terror State”
FILE “01 – Turncoat.wav” WAVE
TRACK 01 AUDIO
TITLE “Turncoat”
PERFORMER “Anti-Flag”
INDEX 01 00:00:00
TRACK 02 AUDIO
TITLE “Rank-N-File”
PERFORMER “Anti-Flag”
FLAGS DCP
INDEX 00 02:02:20
FILE “02 – Rank-N-File.wav” WAVE
INDEX 01 00:00:00
TRACK 03 AUDIO
TITLE “Post-War Breakout”
PERFORMER “Anti-Flag”
FLAGS DCP
INDEX 00 03:38:52
FILE “03 – Post-War Breakout.wav” WAVE
INDEX 01 00:00:00
TRACK 04 AUDIO
TITLE “Sold As Freedom”
PERFORMER “Anti-Flag”
FLAGS DCP
INDEX 00 03:03:40
FILE “04 – Sold As Freedom.wav” WAVE
INDEX 01 00:00:00
TRACK 05 AUDIO
TITLE “Power To The Peaceful”
PERFORMER “Anti-Flag”
FLAGS DCP
INDEX 00 02:08:68
FILE “05 – Power To The Peaceful.wav” WAVE
INDEX 01 00:00:00
TRACK 06 AUDIO
TITLE “Mind The G.A.T.T.”
PERFORMER “Anti-Flag”
FLAGS DCP
INDEX 00 02:49:12
FILE “06 – Mind The G.A.T.T..wav” WAVE
INDEX 01 00:00:00
TRACK 07 AUDIO
TITLE “You Can Kill The Protester, But You Can’t Kill The Protest”
PERFORMER “Anti-Flag”
FLAGS DCP
INDEX 00 03:06:48
FILE “07 – You Can Kill The Protester, But You Can’t Kill The Protest.wav” WAVE
INDEX 01 00:00:00
TRACK 08 AUDIO
TITLE “When You Don’t Control Your Government People Want To Kill You”
PERFORMER “Anti-Flag”
FLAGS DCP
INDEX 00 02:25:17
FILE “08 – When You Don’t Control Your Government People Want To Kill You.wav” WAVE
INDEX 01 00:00:00
TRACK 09 AUDIO
TITLE “Wake Up!”
PERFORMER “Anti-Flag”
FLAGS DCP
INDEX 00 02:40:05
FILE “09 – Wake Up!.wav” WAVE
INDEX 01 00:00:00
TRACK 10 AUDIO
TITLE “Tearing Down The Borders”
PERFORMER “Anti-Flag”
FLAGS DCP
INDEX 00 02:27:58
FILE “10 – Tearing Down The Borders.wav” WAVE
INDEX 01 00:00:00
TRACK 11 AUDIO
TITLE “Death Of A Nation”
PERFORMER “Anti-Flag”
FLAGS DCP
INDEX 00 03:00:05
FILE “11 – Death Of A Nation.wav” WAVE
INDEX 01 00:00:00
TRACK 12 AUDIO
TITLE “Operation Iraqi Liberation (O.I.L.)”
PERFORMER “Anti-Flag”
FLAGS DCP
INDEX 00 01:47:50
FILE “12 – Operation Iraqi Liberation (O.I.L.).wav” WAVE
INDEX 01 00:00:00
TRACK 13 AUDIO
TITLE “One People, One Struggle”
PERFORMER “Anti-Flag”
FLAGS DCP
INDEX 00 02:13:15
FILE “13 – One People, One Struggle.wav” WAVE
INDEX 01 00:00:00

Spread the Download

Leave a Reply

Your email address will not be published. Required fields are marked *

Enter the text from the image below
 

This site uses Akismet to reduce spam. Learn how your comment data is processed.