Anti-Flag – Mobilize




  • [Total: 0    Average: 0/5]

    Artist: Anti-Flag
    Year: 2002
    Genre: Punk
    Notes: Discogs
    Add. Notes:
    Encoder: FLAC
    Bitrate: ~900 kBit/s (44.1 kHz/16 Bit/s)
    Size: 358,23 MB
    Password: “slam” (without ” “)


    Tracklist:

    1 - 911 For Peace - 3:34
    2 - Mumia's Song - 2:24
    3 - What's The Difference? - 1:59
    4 - We Want To Be Free - 1:36
    5 - N.B.C. (No Blood-Thirsty Corporations) - 2:12
    6 - Right To Choose - 2:57
    7 - We Don't Need It! - 3:12
    8 - Anatomy Of Your Enemy - 3:02
    9 - Underground Network (Live) - 3:32
    10 - Tearing Everyone Down (Live) - 2:44
    11 - Bring Out Your Dead (Live) - 3:01
    12 - A New Kind Of Army (Live) - 3:46
    13 - Their System Doesn't Work For You (Live) - 2:25
    14 - Free Nation (Live) - 2:56
    15 - Spaz's House Destruction Party (Live) - 3:10
    16.1 - Die For The Government (Live) - 17:52
    16.2 - Untitled - 9:56
    16.3 - Untitled - 8:11
    

    EAC-Log, CUE-Sheed & NFO:

    Click to open spoiler
    Exact Audio Copy V0.99 prebeta 4 from 23. January 2008

    EAC extraction logfile from 11. May 2009, 20:00

    Anti-Flag / Mobilize

    Used drive : PHILIPS CDRW/DVD CDD5263 Adapter: 0 ID: 0

    Read mode : Secure
    Utilize accurate stream : Yes
    Defeat audio cache : Yes
    Make use of C2 pointers : No

    Read offset correction : 594
    Overread into Lead-In and Lead-Out : No
    Fill up missing offset samples with silence : Yes
    Delete leading and trailing silent blocks : No
    Null samples used in CRC calculations : Yes
    Used interface : Native Win32 interface for Win NT & 2000
    Gap handling : Appended to previous track

    Used output format : Internal WAV Routines
    Sample format : 44.100 Hz; 16 Bit; Stereo

    TOC of the extracted CD

    Track | Start | Length | Start sector | End sector
    ———————————————————
    1 | 0:00.00 | 3:34.45 | 0 | 16094
    2 | 3:34.45 | 2:24.08 | 16095 | 26902
    3 | 5:58.53 | 1:59.64 | 26903 | 35891
    4 | 7:58.42 | 1:36.10 | 35892 | 43101
    5 | 9:34.52 | 2:12.38 | 43102 | 53039
    6 | 11:47.15 | 2:57.34 | 53040 | 66348
    7 | 14:44.49 | 3:12.17 | 66349 | 80765
    8 | 17:56.66 | 3:02.42 | 80766 | 94457
    9 | 20:59.33 | 3:32.38 | 94458 | 110395
    10 | 24:31.71 | 2:44.19 | 110396 | 122714
    11 | 27:16.15 | 3:01.43 | 122715 | 136332
    12 | 30:17.58 | 3:46.20 | 136333 | 153302
    13 | 34:04.03 | 2:25.03 | 153303 | 164180
    14 | 36:29.06 | 2:56.05 | 164181 | 177385
    15 | 39:25.11 | 3:10.22 | 177386 | 191657
    16 | 42:35.33 | 31:22.42 | 191658 | 332849

    Track 1

    Filename C:\Documents and Settings\Administrator\Desktop\what.cd\mobilize flac\Anti-Flag – 2002 – Mobilize – 01 – 911 For Peace.wav

    Pre-gap length 0:00:02.00

    Peak level 98.8 %
    Track quality 100.0 %
    Test CRC 1BB9347A
    Copy CRC 1BB9347A
    Accurately ripped (confidence 6) [C45BCAAB]
    Copy OK

    Track 2

    Filename C:\Documents and Settings\Administrator\Desktop\what.cd\mobilize flac\Anti-Flag – 2002 – Mobilize – 02 – Mumia’s Song.wav

    Peak level 98.8 %
    Track quality 99.9 %
    Test CRC 591F1986
    Copy CRC 591F1986
    Accurately ripped (confidence 7) [D257D67C]
    Copy OK

    Track 3

    Filename C:\Documents and Settings\Administrator\Desktop\what.cd\mobilize flac\Anti-Flag – 2002 – Mobilize – 03 – What’s The Difference .wav

    Peak level 98.8 %
    Track quality 99.9 %
    Test CRC 9BAF8999
    Copy CRC 9BAF8999
    Accurately ripped (confidence 7) [4998D3AB]
    Copy OK

    Track 4

    Filename C:\Documents and Settings\Administrator\Desktop\what.cd\mobilize flac\Anti-Flag – 2002 – Mobilize – 04 – We Want To Be Free.wav

    Peak level 98.8 %
    Track quality 100.0 %
    Test CRC A8D0934B
    Copy CRC A8D0934B
    Accurately ripped (confidence 7) [C667CD00]
    Copy OK

    Track 5

    Filename C:\Documents and Settings\Administrator\Desktop\what.cd\mobilize flac\Anti-Flag – 2002 – Mobilize – 05 – N.B.C. (No Blood-Thirsty Corporations).wav

    Peak level 98.8 %
    Track quality 99.9 %
    Test CRC E2AA288B
    Copy CRC E2AA288B
    Accurately ripped (confidence 7) [C0100B88]
    Copy OK

    Track 6

    Filename C:\Documents and Settings\Administrator\Desktop\what.cd\mobilize flac\Anti-Flag – 2002 – Mobilize – 06 – Right To Choose.wav

    Peak level 98.8 %
    Track quality 100.0 %
    Test CRC 0F070018
    Copy CRC 0F070018
    Accurately ripped (confidence 7) [E0C640BF]
    Copy OK

    Track 7

    Filename C:\Documents and Settings\Administrator\Desktop\what.cd\mobilize flac\Anti-Flag – 2002 – Mobilize – 07 – We Don’t Need It!.wav

    Peak level 98.8 %
    Track quality 100.0 %
    Test CRC 51EE41A8
    Copy CRC 51EE41A8
    Accurately ripped (confidence 7) [66749521]
    Copy OK

    Track 8

    Filename C:\Documents and Settings\Administrator\Desktop\what.cd\mobilize flac\Anti-Flag – 2002 – Mobilize – 08 – Anatomy Of Your Enemy.wav

    Peak level 98.8 %
    Track quality 100.0 %
    Test CRC 15F905FE
    Copy CRC 15F905FE
    Accurately ripped (confidence 7) [A137A2FC]
    Copy OK

    Track 9

    Filename C:\Documents and Settings\Administrator\Desktop\what.cd\mobilize flac\Anti-Flag – 2002 – Mobilize – 09 – Underground Network (Live).wav

    Peak level 98.8 %
    Track quality 99.9 %
    Test CRC 85CBB89D
    Copy CRC 85CBB89D
    Accurately ripped (confidence 7) [E6782E08]
    Copy OK

    Track 10

    Filename C:\Documents and Settings\Administrator\Desktop\what.cd\mobilize flac\Anti-Flag – 2002 – Mobilize – 10 – Tearing Everyone Down (Live).wav

    Peak level 98.8 %
    Track quality 100.0 %
    Test CRC 2FBB29C8
    Copy CRC 2FBB29C8
    Accurately ripped (confidence 7) [55CA1743]
    Copy OK

    Track 11

    Filename C:\Documents and Settings\Administrator\Desktop\what.cd\mobilize flac\Anti-Flag – 2002 – Mobilize – 11 – Bring Out Your Dead (Live).wav

    Peak level 98.8 %
    Track quality 100.0 %
    Test CRC 262DB3B8
    Copy CRC 262DB3B8
    Accurately ripped (confidence 7) [54316EF5]
    Copy OK

    Track 12

    Filename C:\Documents and Settings\Administrator\Desktop\what.cd\mobilize flac\Anti-Flag – 2002 – Mobilize – 12 – A New Kind Of Army (Live).wav

    Pre-gap length 0:00:49.18

    Peak level 98.8 %
    Track quality 100.0 %
    Test CRC F03B5385
    Copy CRC F03B5385
    Accurately ripped (confidence 7) [8E497BC1]
    Copy OK

    Track 13

    Filename C:\Documents and Settings\Administrator\Desktop\what.cd\mobilize flac\Anti-Flag – 2002 – Mobilize – 13 – Their System Doesn’t Work For You (Live).wav

    Peak level 98.8 %
    Track quality 100.0 %
    Test CRC FD31F75C
    Copy CRC FD31F75C
    Accurately ripped (confidence 6) [DB5E9D90]
    Copy OK

    Track 14

    Filename C:\Documents and Settings\Administrator\Desktop\what.cd\mobilize flac\Anti-Flag – 2002 – Mobilize – 14 – Free Nation (Live).wav

    Peak level 98.8 %
    Track quality 100.0 %
    Test CRC 494A1200
    Copy CRC 494A1200
    Accurately ripped (confidence 6) [D3EF1A0B]
    Copy OK

    Track 15

    Filename C:\Documents and Settings\Administrator\Desktop\what.cd\mobilize flac\Anti-Flag – 2002 – Mobilize – 15 – Spaz’s House Destruction Party (Live).wav

    Pre-gap length 0:00:15.27

    Peak level 98.8 %
    Track quality 100.0 %
    Test CRC BE916AC9
    Copy CRC BE916AC9
    Accurately ripped (confidence 6) [CDEA4C98]
    Copy OK

    Track 16

    Filename C:\Documents and Settings\Administrator\Desktop\what.cd\mobilize flac\Anti-Flag – 2002 – Mobilize – 16 – Die For The Government (Live).wav

    Peak level 98.8 %
    Track quality 100.0 %
    Test CRC DA5D666D
    Copy CRC DA5D666D
    Accurately ripped (confidence 5) [A76BB2B6]
    Copy OK

    All tracks accurately ripped

    No errors occurred

    End of status report

    REM GENRE “Punk Rock”
    REM DATE 2002
    REM DISCID E4115610
    REM COMMENT “ExactAudioCopy v0.99pb4”
    PERFORMER “Anti-Flag”
    TITLE “Mobilize”
    FILE “Anti-Flag – 2002 – Mobilize – 01 – 911 For Peace.wav” WAVE
    TRACK 01 AUDIO
    TITLE “911 For Peace”
    PERFORMER “Anti-Flag”
    INDEX 01 00:00:00
    FILE “Anti-Flag – 2002 – Mobilize – 02 – Mumia’s Song.wav” WAVE
    TRACK 02 AUDIO
    TITLE “Mumia’s Song”
    PERFORMER “Anti-Flag”
    INDEX 01 00:00:00
    FILE “Anti-Flag – 2002 – Mobilize – 03 – What’s The Difference .wav” WAVE
    TRACK 03 AUDIO
    TITLE “What’s The Difference?”
    PERFORMER “Anti-Flag”
    INDEX 01 00:00:00
    FILE “Anti-Flag – 2002 – Mobilize – 04 – We Want To Be Free.wav” WAVE
    TRACK 04 AUDIO
    TITLE “We Want To Be Free”
    PERFORMER “Anti-Flag”
    INDEX 01 00:00:00
    FILE “Anti-Flag – 2002 – Mobilize – 05 – N.B.C. (No Blood-Thirsty Corporations).wav” WAVE
    TRACK 05 AUDIO
    TITLE “N.B.C. (No Blood-Thirsty Corporations)”
    PERFORMER “Anti-Flag”
    INDEX 01 00:00:00
    FILE “Anti-Flag – 2002 – Mobilize – 06 – Right To Choose.wav” WAVE
    TRACK 06 AUDIO
    TITLE “Right To Choose”
    PERFORMER “Anti-Flag”
    INDEX 01 00:00:00
    FILE “Anti-Flag – 2002 – Mobilize – 07 – We Don’t Need It!.wav” WAVE
    TRACK 07 AUDIO
    TITLE “We Don’t Need It!”
    PERFORMER “Anti-Flag”
    INDEX 01 00:00:00
    FILE “Anti-Flag – 2002 – Mobilize – 08 – Anatomy Of Your Enemy.wav” WAVE
    TRACK 08 AUDIO
    TITLE “Anatomy Of Your Enemy”
    PERFORMER “Anti-Flag”
    INDEX 01 00:00:00
    FILE “Anti-Flag – 2002 – Mobilize – 09 – Underground Network (Live).wav” WAVE
    TRACK 09 AUDIO
    TITLE “Underground Network (Live)”
    PERFORMER “Anti-Flag”
    INDEX 01 00:00:00
    FILE “Anti-Flag – 2002 – Mobilize – 10 – Tearing Everyone Down (Live).wav” WAVE
    TRACK 10 AUDIO
    TITLE “Tearing Everyone Down (Live)”
    PERFORMER “Anti-Flag”
    INDEX 01 00:00:00
    FILE “Anti-Flag – 2002 – Mobilize – 11 – Bring Out Your Dead (Live).wav” WAVE
    TRACK 11 AUDIO
    TITLE “Bring Out Your Dead (Live)”
    PERFORMER “Anti-Flag”
    INDEX 01 00:00:00
    TRACK 12 AUDIO
    TITLE “A New Kind Of Army (Live)”
    PERFORMER “Anti-Flag”
    INDEX 00 02:12:25
    FILE “Anti-Flag – 2002 – Mobilize – 12 – A New Kind Of Army (Live).wav” WAVE
    INDEX 01 00:00:00
    FILE “Anti-Flag – 2002 – Mobilize – 13 – Their System Doesn’t Work For You (Live).wav” WAVE
    TRACK 13 AUDIO
    TITLE “Their System Doesn’t Work For You (Live)”
    PERFORMER “Anti-Flag”
    INDEX 01 00:00:00
    FILE “Anti-Flag – 2002 – Mobilize – 14 – Free Nation (Live).wav” WAVE
    TRACK 14 AUDIO
    TITLE “Free Nation (Live)”
    PERFORMER “Anti-Flag”
    INDEX 01 00:00:00
    TRACK 15 AUDIO
    TITLE “Spaz’s House Destruction Party (Live)”
    PERFORMER “Anti-Flag”
    INDEX 00 02:40:53
    FILE “Anti-Flag – 2002 – Mobilize – 15 – Spaz’s House Destruction Party (Live).wav” WAVE
    INDEX 01 00:00:00
    FILE “Anti-Flag – 2002 – Mobilize – 16 – Die For The Government (Live).wav” WAVE
    TRACK 16 AUDIO
    TITLE “Die For The Government (Live)”
    PERFORMER “Anti-Flag”
    INDEX 01 00:00:00

    Author: Chaos

    Leave a Reply

    Your email address will not be published. Required fields are marked *

    This site uses Akismet to reduce spam. Learn how your comment data is processed.