Anti-Flag – Die For The Government




[Total: 0    Average: 0/5]

Artist: Anti-Flag
Year: 1997
Genre: Punk
Notes: Discogs
Add. Notes:
Encoder: FLAC
Bitrate: ~1000 kBit/s (44.1 kHz/16 Bit/s)
Size: 313,04 MB
Password: “slam” (without ” “)


Tracklist:

1 - You'd Do The Same - 2:21
2 - You've Got To Die For The Government - 3:39
3 - Drink Drank Punk - 1:41
4 - Rotten Future - 1:58
5 - Safe Tonight - 2:42
6 - Red, White, And Brainwashed - 1:51
7 - Davey Destroyed The Punk Scene - 2:19
8 - Summer Squatter Go Home - 3:01
9 - She's My Little Go Go Dancer - 2:22
10 - Police State In The USA - 2:38
11 - Punk By The Book - 2:13
12 - Fuck Police Brutality - 2:20
13 - I'm Being Watched By The CIA - 2:12
14 - Kill The Rich - 3:04
15 - No More Dead - 3:49
16 - Confused Youth - 4:12
17 - Your Daddy Was A Rich Man, Your Daddy's Fucking Dead - 2:08

EAC-Log, CUE-Sheed & NFO:

Click to open spoiler
Exact Audio Copy V0.99 prebeta 4 from 23. January 2008

EAC extraction logfile from 8. May 2009, 16:34

Anti-Flag / Die for the Government

Used drive : DVDRW IDE 16X Adapter: 3 ID: 0

Read mode : Secure
Utilize accurate stream : Yes
Defeat audio cache : Yes
Make use of C2 pointers : No

Read offset correction : 12
Overread into Lead-In and Lead-Out : No
Fill up missing offset samples with silence : Yes
Delete leading and trailing silent blocks : No
Null samples used in CRC calculations : Yes
Used interface : Installed external ASPI interface
Gap handling : Appended to previous track

Used output format : User Defined Encoder
Selected bitrate : 128 kBit/s
Quality : High
Add ID3 tag : No
Command line compressor : C:\Program Files\Exact Audio Copy\Flac\flac.exe
Additional command line options : -V -8 -T “artist=%a” -T “title=%t” -T “album=%g” -T “date=%y” -T “tracknumber=%n” -T “genre=%m” %s

TOC of the extracted CD

Track | Start | Length | Start sector | End sector
———————————————————
1 | 0:00.00 | 2:21.02 | 0 | 10576
2 | 2:21.02 | 3:39.58 | 10577 | 27059
3 | 6:00.60 | 1:41.35 | 27060 | 34669
4 | 7:42.20 | 1:58.22 | 34670 | 43541
5 | 9:40.42 | 2:42.22 | 43542 | 55713
6 | 12:22.64 | 1:51.48 | 55714 | 64086
7 | 14:14.37 | 2:19.65 | 64087 | 74576
8 | 16:34.27 | 3:01.48 | 74577 | 88199
9 | 19:36.00 | 2:22.12 | 88200 | 98861
10 | 21:58.12 | 2:38.40 | 98862 | 110751
11 | 24:36.52 | 2:13.38 | 110752 | 120764
12 | 26:50.15 | 2:20.22 | 120765 | 131286
13 | 29:10.37 | 2:12.53 | 131287 | 141239
14 | 31:23.15 | 3:04.19 | 141240 | 155058
15 | 34:27.34 | 3:49.41 | 155059 | 172274
16 | 38:17.00 | 4:12.72 | 172275 | 191246
17 | 42:29.72 | 2:08.63 | 191247 | 200909

Track 1

Filename C:\Documents and Settings\exark\My Documents\Downloads\EACs\Die for the Government\You’d Do the Same.wav

Pre-gap length 0:00:02.00

Peak level 100.0 %
Track quality 100.0 %
Test CRC CC683FF4
Copy CRC CC683FF4
Cannot be verified as accurate (confidence 5) [15702EC2], AccurateRip returned [CF4F6804]
Copy OK

Track 2

Filename C:\Documents and Settings\exark\My Documents\Downloads\EACs\Die for the Government\You’ve Got to Die for the government.wav

Pre-gap length 0:00:00.43

Peak level 100.0 %
Track quality 100.0 %
Test CRC 03A9BBBE
Copy CRC 03A9BBBE
Cannot be verified as accurate (confidence 4) [C1B9E760], AccurateRip returned [B2E91ED2]
Copy OK

Track 3

Filename C:\Documents and Settings\exark\My Documents\Downloads\EACs\Die for the Government\Drink Drank Punk.wav

Peak level 100.0 %
Track quality 100.0 %
Test CRC E1414116
Copy CRC E1414116
Cannot be verified as accurate (confidence 4) [EFF71BCD], AccurateRip returned [D266541B]
Copy OK

Track 4

Filename C:\Documents and Settings\exark\My Documents\Downloads\EACs\Die for the Government\Rotten Future.wav

Peak level 100.0 %
Track quality 100.0 %
Test CRC 0027F4C7
Copy CRC 0027F4C7
Cannot be verified as accurate (confidence 4) [5071320A], AccurateRip returned [508CBE96]
Copy OK

Track 5

Filename C:\Documents and Settings\exark\My Documents\Downloads\EACs\Die for the Government\Safe Tonight.wav

Peak level 100.0 %
Track quality 100.0 %
Test CRC E44C0A89
Copy CRC E44C0A89
Cannot be verified as accurate (confidence 4) [BE79DE1A], AccurateRip returned [73A4A936]
Copy OK

Track 6

Filename C:\Documents and Settings\exark\My Documents\Downloads\EACs\Die for the Government\Red White and Brainwashed.wav

Peak level 100.0 %
Track quality 100.0 %
Test CRC 65A6CD47
Copy CRC 65A6CD47
Cannot be verified as accurate (confidence 4) [B7319E78], AccurateRip returned [4D5004A7]
Copy OK

Track 7

Filename C:\Documents and Settings\exark\My Documents\Downloads\EACs\Die for the Government\Davey Destroyed the Punk Scene.wav

Peak level 100.0 %
Track quality 100.0 %
Test CRC 0D15CCDF
Copy CRC 0D15CCDF
Cannot be verified as accurate (confidence 4) [44A8F95A], AccurateRip returned [8021CDD5]
Copy OK

Track 8

Filename C:\Documents and Settings\exark\My Documents\Downloads\EACs\Die for the Government\Summer Squatter Go Home.wav

Peak level 100.0 %
Track quality 99.9 %
Test CRC 0321F3C4
Copy CRC 0321F3C4
Cannot be verified as accurate (confidence 4) [7383C63A], AccurateRip returned [9414927B]
Copy OK

Track 9

Filename C:\Documents and Settings\exark\My Documents\Downloads\EACs\Die for the Government\She’s My Little Go Go Dancer.wav

Peak level 100.0 %
Track quality 100.0 %
Test CRC 073A9629
Copy CRC 073A9629
Cannot be verified as accurate (confidence 4) [F6BB7902], AccurateRip returned [6C51A48A]
Copy OK

Track 10

Filename C:\Documents and Settings\exark\My Documents\Downloads\EACs\Die for the Government\Police State in the USA.wav

Peak level 100.0 %
Track quality 100.0 %
Test CRC 34B7EF51
Copy CRC 34B7EF51
Cannot be verified as accurate (confidence 4) [B4927120], AccurateRip returned [5BE10500]
Copy OK

Track 11

Filename C:\Documents and Settings\exark\My Documents\Downloads\EACs\Die for the Government\Punk By the Book.wav

Peak level 100.0 %
Track quality 100.0 %
Test CRC 9E35B40F
Copy CRC 9E35B40F
Cannot be verified as accurate (confidence 4) [F675EEB4], AccurateRip returned [E3E0E195]
Copy OK

Track 12

Filename C:\Documents and Settings\exark\My Documents\Downloads\EACs\Die for the Government\Fuck Police Brutality.wav

Peak level 100.0 %
Track quality 100.0 %
Test CRC AAD3D084
Copy CRC AAD3D084
Cannot be verified as accurate (confidence 4) [A77A23DF], AccurateRip returned [7ED2C330]
Copy OK

Track 13

Filename C:\Documents and Settings\exark\My Documents\Downloads\EACs\Die for the Government\I’m Being Watched By the CIA.wav

Peak level 100.0 %
Track quality 100.0 %
Test CRC 6CB20B6C
Copy CRC 6CB20B6C
Cannot be verified as accurate (confidence 4) [2B9B9A41], AccurateRip returned [DF2AF91B]
Copy OK

Track 14

Filename C:\Documents and Settings\exark\My Documents\Downloads\EACs\Die for the Government\Kill the Rich.wav

Peak level 100.0 %
Track quality 100.0 %
Test CRC 87F94C18
Copy CRC 87F94C18
Cannot be verified as accurate (confidence 4) [16CC57E9], AccurateRip returned [70CB8B07]
Copy OK

Track 15

Filename C:\Documents and Settings\exark\My Documents\Downloads\EACs\Die for the Government\No More Dead.wav

Peak level 100.0 %
Track quality 100.0 %
Test CRC 81ABA19E
Copy CRC 81ABA19E
Cannot be verified as accurate (confidence 4) [1A6F7939], AccurateRip returned [B3AB6CF1]
Copy OK

Track 16

Filename C:\Documents and Settings\exark\My Documents\Downloads\EACs\Die for the Government\Confused Youth.wav

Peak level 100.0 %
Track quality 100.0 %
Test CRC A1731ADC
Copy CRC A1731ADC
Cannot be verified as accurate (confidence 4) [3F9BC109], AccurateRip returned [BA2517B4]
Copy OK

Track 17

Filename C:\Documents and Settings\exark\My Documents\Downloads\EACs\Die for the Government\Your Daddy Was a Rich Man, Your Daddy’s Fucking Dead.wav

Peak level 100.0 %
Track quality 99.9 %
Test CRC 40885EF9
Copy CRC 40885EF9
Cannot be verified as accurate (confidence 4) [0CBBD441], AccurateRip returned [318C2404]
Copy OK

No tracks could be verified as accurate
You may have a different pressing from the one(s) in the database

No errors occurred

End of status report

REM GENRE Punk
REM DATE 1996
REM DISCID FA0A7611
REM COMMENT “ExactAudioCopy v0.99pb4”
PERFORMER “Anti-Flag”
TITLE “Die for the Government”
FILE “You’d Do the Same.wav” WAVE
TRACK 01 AUDIO
TITLE “You’d Do the Same”
PERFORMER “Anti-Flag”
INDEX 01 00:00:00
TRACK 02 AUDIO
TITLE “You’ve Got to Die for the government”
PERFORMER “Anti-Flag”
INDEX 00 02:20:34
FILE “You’ve Got to Die for the government.wav” WAVE
INDEX 01 00:00:00
FILE “Drink Drank Punk.wav” WAVE
TRACK 03 AUDIO
TITLE “Drink Drank Punk”
PERFORMER “Anti-Flag”
INDEX 01 00:00:00
FILE “Rotten Future.wav” WAVE
TRACK 04 AUDIO
TITLE “Rotten Future”
PERFORMER “Anti-Flag”
INDEX 01 00:00:00
FILE “Safe Tonight.wav” WAVE
TRACK 05 AUDIO
TITLE “Safe Tonight”
PERFORMER “Anti-Flag”
INDEX 01 00:00:00
FILE “Red White and Brainwashed.wav” WAVE
TRACK 06 AUDIO
TITLE “Red White and Brainwashed”
PERFORMER “Anti-Flag”
INDEX 01 00:00:00
FILE “Davey Destroyed the Punk Scene.wav” WAVE
TRACK 07 AUDIO
TITLE “Davey Destroyed the Punk Scene”
PERFORMER “Anti-Flag”
INDEX 01 00:00:00
FILE “Summer Squatter Go Home.wav” WAVE
TRACK 08 AUDIO
TITLE “Summer Squatter Go Home”
PERFORMER “Anti-Flag”
INDEX 01 00:00:00
FILE “She’s My Little Go Go Dancer.wav” WAVE
TRACK 09 AUDIO
TITLE “She’s My Little Go Go Dancer”
PERFORMER “Anti-Flag”
INDEX 01 00:00:00
FILE “Police State in the USA.wav” WAVE
TRACK 10 AUDIO
TITLE “Police State in the USA”
PERFORMER “Anti-Flag”
INDEX 01 00:00:00
FILE “Punk By the Book.wav” WAVE
TRACK 11 AUDIO
TITLE “Punk By the Book”
PERFORMER “Anti-Flag”
INDEX 01 00:00:00
FILE “Fuck Police Brutality.wav” WAVE
TRACK 12 AUDIO
TITLE “Fuck Police Brutality”
PERFORMER “Anti-Flag”
INDEX 01 00:00:00
FILE “I’m Being Watched By the CIA.wav” WAVE
TRACK 13 AUDIO
TITLE “I’m Being Watched By the CIA”
PERFORMER “Anti-Flag”
INDEX 01 00:00:00
FILE “Kill the Rich.wav” WAVE
TRACK 14 AUDIO
TITLE “Kill the Rich”
PERFORMER “Anti-Flag”
INDEX 01 00:00:00
FILE “No More Dead.wav” WAVE
TRACK 15 AUDIO
TITLE “No More Dead”
PERFORMER “Anti-Flag”
INDEX 01 00:00:00
FILE “Confused Youth.wav” WAVE
TRACK 16 AUDIO
TITLE “Confused Youth”
PERFORMER “Anti-Flag”
INDEX 01 00:00:00
FILE “Your Daddy Was a Rich Man, Your Daddy’s Fucking Dead.wav” WAVE
TRACK 17 AUDIO
TITLE “Your Daddy Was a Rich Man, Your Daddy’s Fucking Dead”
PERFORMER “Anti-Flag”
INDEX 01 00:00:00

Spread the Download

Leave a Reply

Your email address will not be published. Required fields are marked *

Enter the text from the image below
 

This site uses Akismet to reduce spam. Learn how your comment data is processed.