Anti Flag + Bouncing Souls – BYO Split Series Vol. 4




[Total: 0    Average: 0/5]

Artist: Anti Flag + Bouncing Souls
Year: 2002
Genre: Punk
Notes: Discogs
Add. Notes:
Encoder: FLAC
Bitrate: ~900 kBit/s (44.1 kHz/16 Bit/s)
Size: 252 MB
Password: “slam” (without ” “)


http://www.share-online.biz/dl/QBB89KRPDWP
https://rapidgator.net/file/4a760c78fc06eab6f44b3a6b01619116
https://uploadbyte.com/m8tna7owkorn
https://hitfile.net/oWlYKcd

Tracklist:

1 - Bouncing Souls* - Punks In Vegas - 2:36
2 - Bouncing Souls* - No Security - 1:21
3 - Bouncing Souls* - That's Youth -3:03
4 - Bouncing Souls* - Bryan's Lament - 2:15
5 - Bouncing Souls* - We're Coming Back - 3:10
6 - Bouncing Souls* - Less Than Free - 4:11
7 - Anti-Flag - America Got It Right - 2:56
8 - Anti-Flag - Smash It To Pieces - 2:48
9 - Anti-Flag - No Borders, No Nations - 3:13
10 - Anti-Flag - Gifts From America: With Love, The U.S.A. - 2:41
11 - Anti-Flag - The Freaks, Nerds & Romantics - 2:31
12 - Anti-Flag - Ever Fallen In Love (With Someone You 
Shouldn't Have Fallen In Love With?) - 2:43

EAC-Log, CUE-Sheed & NFO:

Click to open spoiler
Exact Audio Copy V0.99 prebeta 4 from 23. January 2008

EAC extraction logfile from 3. May 2009, 13:05

Anti Flag + Bouncing Souls / BYO Split Series Vol. 4

Used drive : ATAPI DVD DD 8X16X8X16 Adapter: 3 ID: 0

Read mode : Secure
Utilize accurate stream : Yes
Defeat audio cache : Yes
Make use of C2 pointers : No

Read offset correction : 618
Overread into Lead-In and Lead-Out : No
Fill up missing offset samples with silence : Yes
Delete leading and trailing silent blocks : No
Null samples used in CRC calculations : Yes
Used interface : Native Win32 interface for Win NT & 2000
Gap handling : Appended to previous track

Used output format : User Defined Encoder
Selected bitrate : 128 kBit/s
Quality : High
Add ID3 tag : No
Command line compressor : C:\Program Files\Exact Audio Copy\Flac\flac.exe
Additional command line options : -V -8 -T “artist=%a” -T “title=%t” -T “album=%g” -T “date=%y” -T “tracknumber=%n” -T “genre=%m” %s

TOC of the extracted CD

Track | Start | Length | Start sector | End sector
———————————————————
1 | 0:00.00 | 2:36.62 | 0 | 11761
2 | 2:36.62 | 1:21.57 | 11762 | 17893
3 | 3:58.44 | 3:03.71 | 17894 | 31689
4 | 7:02.40 | 2:15.35 | 31690 | 41849
5 | 9:18.00 | 3:10.18 | 41850 | 56117
6 | 12:28.18 | 4:11.32 | 56118 | 74974
7 | 16:39.50 | 2:56.23 | 74975 | 88197
8 | 19:35.73 | 2:48.26 | 88198 | 100823
9 | 22:24.24 | 3:13.71 | 100824 | 115369
10 | 25:38.20 | 2:41.05 | 115370 | 127449
11 | 28:19.25 | 2:31.32 | 127450 | 138806
12 | 30:50.57 | 2:43.50 | 138807 | 151081

Track 1

Filename D:\Music\Anti-Flag + Bouncing Souls Split [flac]\01 – Bouncing Souls – Punks In Vegas.wav

Pre-gap length 0:00:02.00

Peak level 98.8 %
Track quality 100.0 %
Test CRC 97B22F77
Copy CRC 97B22F77
Track not present in AccurateRip database
Copy OK

Track 2

Filename D:\Music\Anti-Flag + Bouncing Souls Split [flac]\02 – Bouncing Souls – No Security.wav

Pre-gap length 0:00:00.08

Peak level 98.8 %
Track quality 100.0 %
Test CRC 955555E8
Copy CRC 955555E8
Track not present in AccurateRip database
Copy OK

Track 3

Filename D:\Music\Anti-Flag + Bouncing Souls Split [flac]\03 – Bouncing Souls – That’s Youth.wav

Pre-gap length 0:00:00.42

Peak level 98.8 %
Track quality 99.9 %
Test CRC A8601EA6
Copy CRC A8601EA6
Track not present in AccurateRip database
Copy OK

Track 4

Filename D:\Music\Anti-Flag + Bouncing Souls Split [flac]\04 – Bouncing Souls – Bryan’s Lament.wav

Pre-gap length 0:00:00.16

Peak level 98.8 %
Track quality 99.9 %
Test CRC E46B1E73
Copy CRC E46B1E73
Track not present in AccurateRip database
Copy OK

Track 5

Filename D:\Music\Anti-Flag + Bouncing Souls Split [flac]\05 – Bouncing Souls – We’re Coming Back.wav

Pre-gap length 0:00:00.81

Peak level 98.8 %
Track quality 99.9 %
Test CRC D838DED5
Copy CRC D838DED5
Track not present in AccurateRip database
Copy OK

Track 6

Filename D:\Music\Anti-Flag + Bouncing Souls Split [flac]\06 – Bouncing Souls – Less Than Free.wav

Pre-gap length 0:00:00.73

Peak level 98.8 %
Track quality 100.0 %
Test CRC E98E36B9
Copy CRC E98E36B9
Track not present in AccurateRip database
Copy OK

Track 7

Filename D:\Music\Anti-Flag + Bouncing Souls Split [flac]\07 – Anti-Flag – America Got It Right.wav

Pre-gap length 0:00:02.04

Peak level 98.8 %
Track quality 99.9 %
Test CRC B21BC20A
Copy CRC B21BC20A
Track not present in AccurateRip database
Copy OK

Track 8

Filename D:\Music\Anti-Flag + Bouncing Souls Split [flac]\08 – Anti-Flag – Smash It To Pieces.wav

Pre-gap length 0:00:00.22

Peak level 98.8 %
Track quality 99.9 %
Test CRC 775C926F
Copy CRC 775C926F
Track not present in AccurateRip database
Copy OK

Track 9

Filename D:\Music\Anti-Flag + Bouncing Souls Split [flac]\09 – Anti-Flag – No Borders, No Nations.wav

Pre-gap length 0:00:00.37

Peak level 98.8 %
Track quality 99.9 %
Test CRC 7742788A
Copy CRC 7742788A
Track not present in AccurateRip database
Copy OK

Track 10

Filename D:\Music\Anti-Flag + Bouncing Souls Split [flac]\10 – Anti-Flag – Gifts From America- With Love, the U.S.A..wav

Pre-gap length 0:00:00.30

Peak level 98.8 %
Track quality 100.0 %
Test CRC 2CD8F68D
Copy CRC 2CD8F68D
Track not present in AccurateRip database
Copy OK

Track 11

Filename D:\Music\Anti-Flag + Bouncing Souls Split [flac]\11 – Anti-Flag – The Freaks, Nerds & Romantics.wav

Pre-gap length 0:00:00.26

Peak level 98.8 %
Track quality 99.9 %
Test CRC 764C9A7B
Copy CRC 764C9A7B
Track not present in AccurateRip database
Copy OK

Track 12

Filename D:\Music\Anti-Flag + Bouncing Souls Split [flac]\12 – Anti-Flag – Ever Fallen In Love (with someone you shouldn’t have fallen in love with) .wav

Pre-gap length 0:00:00.38

Peak level 98.8 %
Track quality 100.0 %
Test CRC 37EA26A4
Copy CRC 37EA26A4
Track not present in AccurateRip database
Copy OK

None of the tracks are present in the AccurateRip database

No errors occurred

End of status report

REM GENRE “Punk Rock”
REM DATE 2002
REM DISCID 7A07DE0C
REM COMMENT “ExactAudioCopy v0.99pb4”
PERFORMER “Anti Flag + Bouncing Souls”
TITLE “BYO Split Series Vol. 4”
FILE “01 – Bouncing Souls – Punks In Vegas.wav” WAVE
TRACK 01 AUDIO
TITLE “Bouncing Souls – Punks In Vegas”
PERFORMER “Anti Flag + Bouncing Souls”
INDEX 01 00:00:00
TRACK 02 AUDIO
TITLE “Bouncing Souls – No Security”
PERFORMER “Anti Flag + Bouncing Souls”
FLAGS DCP
INDEX 00 02:36:56
FILE “02 – Bouncing Souls – No Security.wav” WAVE
INDEX 01 00:00:00
TRACK 03 AUDIO
TITLE “Bouncing Souls – That’s Youth”
PERFORMER “Anti Flag + Bouncing Souls”
FLAGS DCP
INDEX 00 01:21:25
FILE “03 – Bouncing Souls – That’s Youth.wav” WAVE
INDEX 01 00:00:00
TRACK 04 AUDIO
TITLE “Bouncing Souls – Bryan’s Lament”
PERFORMER “Anti Flag + Bouncing Souls”
FLAGS DCP
INDEX 00 03:03:59
FILE “04 – Bouncing Souls – Bryan’s Lament.wav” WAVE
INDEX 01 00:00:00
TRACK 05 AUDIO
TITLE “Bouncing Souls – We’re Coming Back”
PERFORMER “Anti Flag + Bouncing Souls”
FLAGS DCP
INDEX 00 02:14:49
FILE “05 – Bouncing Souls – We’re Coming Back.wav” WAVE
INDEX 01 00:00:00
TRACK 06 AUDIO
TITLE “Bouncing Souls – Less Than Free”
PERFORMER “Anti Flag + Bouncing Souls”
FLAGS DCP
INDEX 00 03:09:38
FILE “06 – Bouncing Souls – Less Than Free.wav” WAVE
INDEX 01 00:00:00
TRACK 07 AUDIO
TITLE “Anti-Flag – America Got It Right”
PERFORMER “Anti Flag + Bouncing Souls”
FLAGS DCP
INDEX 00 04:09:29
FILE “07 – Anti-Flag – America Got It Right.wav” WAVE
INDEX 01 00:00:00
TRACK 08 AUDIO
TITLE “Anti-Flag – Smash It To Pieces”
PERFORMER “Anti Flag + Bouncing Souls”
FLAGS DCP
INDEX 00 02:56:06
FILE “08 – Anti-Flag – Smash It To Pieces.wav” WAVE
INDEX 01 00:00:00
TRACK 09 AUDIO
TITLE “Anti-Flag – No Borders, No Nations”
PERFORMER “Anti Flag + Bouncing Souls”
FLAGS DCP
INDEX 00 02:47:73
FILE “09 – Anti-Flag – No Borders, No Nations.wav” WAVE
INDEX 01 00:00:00
TRACK 10 AUDIO
TITLE “Anti-Flag – Gifts From America: With Love, the U.S.A.”
PERFORMER “Anti Flag + Bouncing Souls”
FLAGS DCP
INDEX 00 03:13:48
FILE “10 – Anti-Flag – Gifts From America- With Love, the U.S.A..wav” WAVE
INDEX 01 00:00:00
TRACK 11 AUDIO
TITLE “Anti-Flag – The Freaks, Nerds & Romantics”
PERFORMER “Anti Flag + Bouncing Souls”
FLAGS DCP
INDEX 00 02:40:60
FILE “11 – Anti-Flag – The Freaks, Nerds & Romantics.wav” WAVE
INDEX 01 00:00:00
TRACK 12 AUDIO
TITLE “Anti-Flag – Ever Fallen In Love (with someone you shouldn’t have fallen in lo…”
PERFORMER “Anti Flag + Bouncing Souls”
FLAGS DCP
INDEX 00 02:31:03
FILE “12 – Anti-Flag – Ever Fallen In Love (with someone you shouldn’t have fallen in love with) .wav” WAVE
INDEX 01 00:00:00

Spread the Download

Leave a Reply

Your email address will not be published. Required fields are marked *

Enter the text from the image below
 

This site uses Akismet to reduce spam. Learn how your comment data is processed.