Anti-Flag – A New Kind Of Army




[Total: 0    Average: 0/5]

Artist: Anti-Flag
Year: 1999
Genre: Punk
Notes: Discogs
Add. Notes:
Encoder: FLAC
Bitrate: ~900 kBit/s (44.1 kHz/16 Bit/s)
Size: 296,45 MB
Password: “slam” (without ” “)


Tracklist:

01 - Tearing Everyone Down - 2:55
02 - Captain Anarchy - 2:33
03 - A New Kind Of Army - 3:41
04 - That's Youth - 3:13
05 - No Apology - 2:17
06 - Got The Numbers - 3:14
07 - No Difference - 4:02
08 - I Don't Believe - 2:29
09 - Right On - 1:22
10 - What You Don't Know - 2:43
11 - Free Nation? - 2:43
12 - Outbreak - 0:53
13 - Police Story - 3:37
14 - The Consumer's Song - 2:10
15.1 - This Is NOT A Crass Song - 5:00
15.2 - Untitled - 1:00

EAC-Log, CUE-Sheed & NFO:

Click to open spoiler
Exact Audio Copy V0.99 prebeta 4 from 23. January 2008

EAC extraction logfile from 8. December 2008, 0:47

Anti-Flag / A New Kind Of Army

Used drive : HL-DT-STDVDRAM GSA-T20N Adapter: 0 ID: 0

Read mode : Secure
Utilize accurate stream : Yes
Defeat audio cache : Yes
Make use of C2 pointers : No

Read offset correction : 667
Overread into Lead-In and Lead-Out : No
Fill up missing offset samples with silence : Yes
Delete leading and trailing silent blocks : No
Null samples used in CRC calculations : Yes
Used interface : Native Win32 interface for Win NT & 2000
Gap handling : Appended to previous track

Used output format : User Defined Encoder
Selected bitrate : 192 kBit/s
Quality : High
Add ID3 tag : No
Command line compressor : C:\Flac\flac.exe
Additional command line options : -V -8 -T “artist=%a” -T “title=%t” -T “album=%g” -T “date=%y” -T “tracknumber=%n” -T “genre=%m” %s

TOC of the extracted CD

Track | Start | Length | Start sector | End sector
———————————————————
1 | 0:00.00 | 2:55.50 | 0 | 13174
2 | 2:55.50 | 2:33.73 | 13175 | 24722
3 | 5:29.48 | 3:41.66 | 24723 | 41363
4 | 9:11.39 | 3:13.54 | 41364 | 55892
5 | 12:25.18 | 2:17.34 | 55893 | 66201
6 | 14:42.52 | 3:14.26 | 66202 | 80777
7 | 17:57.03 | 4:02.57 | 80778 | 98984
8 | 21:59.60 | 2:29.15 | 98985 | 110174
9 | 24:29.00 | 1:22.72 | 110175 | 116396
10 | 25:51.72 | 2:43.13 | 116397 | 128634
11 | 28:35.10 | 2:43.43 | 128635 | 140902
12 | 31:18.53 | 0:53.21 | 140903 | 144898
13 | 32:11.74 | 3:37.27 | 144899 | 161200
14 | 35:49.26 | 2:10.48 | 161201 | 170998
15 | 37:59.74 | 6:00.00 | 170999 | 197998

Track 1

Filename E:\Rips\1999 – Anti-Flag – A New Kind Of Army\01 – Tearing Everyone Down.wav

Pre-gap length 0:00:02.00

Peak level 98.1 %
Track quality 99.9 %
Test CRC D6B22C2A
Copy CRC D6B22C2A
Cannot be verified as accurate (confidence 8) [C97B7651], AccurateRip returned [0FF4B0E3]
Copy OK

Track 2

Filename E:\Rips\1999 – Anti-Flag – A New Kind Of Army\02 – Captain Anarchy.wav

Peak level 98.0 %
Track quality 100.0 %
Test CRC D4D47AFD
Copy CRC D4D47AFD
Cannot be verified as accurate (confidence 7) [11A81AB1], AccurateRip returned [4415A079]
Copy OK

Track 3

Filename E:\Rips\1999 – Anti-Flag – A New Kind Of Army\03 – A New Kind of Army.wav

Pre-gap length 0:00:01.00

Peak level 99.3 %
Track quality 100.0 %
Test CRC 8D402150
Copy CRC 8D402150
Cannot be verified as accurate (confidence 8) [9CA2B840], AccurateRip returned [DD2113A8]
Copy OK

Track 4

Filename E:\Rips\1999 – Anti-Flag – A New Kind Of Army\04 – That’s Youth.wav

Pre-gap length 0:00:01.00

Peak level 99.3 %
Track quality 100.0 %
Test CRC 16D056DD
Copy CRC 16D056DD
Cannot be verified as accurate (confidence 8) [68088B4E], AccurateRip returned [81E50476]
Copy OK

Track 5

Filename E:\Rips\1999 – Anti-Flag – A New Kind Of Army\05 – No Apology.wav

Pre-gap length 0:00:00.26

Peak level 99.2 %
Track quality 99.9 %
Test CRC C7AA1185
Copy CRC C7AA1185
Cannot be verified as accurate (confidence 8) [E3E393A1], AccurateRip returned [F2C610C1]
Copy OK

Track 6

Filename E:\Rips\1999 – Anti-Flag – A New Kind Of Army\06 – Got The Numbers.wav

Pre-gap length 0:00:00.20

Peak level 99.3 %
Track quality 100.0 %
Test CRC 99A8CC04
Copy CRC 99A8CC04
Cannot be verified as accurate (confidence 8) [DF9367C8], AccurateRip returned [499EF7B8]
Copy OK

Track 7

Filename E:\Rips\1999 – Anti-Flag – A New Kind Of Army\07 – No Difference.wav

Pre-gap length 0:00:00.66

Peak level 93.1 %
Track quality 99.9 %
Test CRC E89A5121
Copy CRC E89A5121
Cannot be verified as accurate (confidence 8) [490BA677], AccurateRip returned [121AEDDF]
Copy OK

Track 8

Filename E:\Rips\1999 – Anti-Flag – A New Kind Of Army\08 – I Don’t Believe.wav

Pre-gap length 0:00:00.40

Peak level 99.2 %
Track quality 100.0 %
Test CRC 1A14C819
Copy CRC 1A14C819
Cannot be verified as accurate (confidence 8) [362D26AB], AccurateRip returned [A3E23033]
Copy OK

Track 9

Filename E:\Rips\1999 – Anti-Flag – A New Kind Of Army\09 – Right On.wav

Pre-gap length 0:00:02.00

Peak level 99.2 %
Track quality 100.0 %
Test CRC 92B293EF
Copy CRC 92B293EF
Cannot be verified as accurate (confidence 8) [0BD668F0], AccurateRip returned [03E8BBB0]
Copy OK

Track 10

Filename E:\Rips\1999 – Anti-Flag – A New Kind Of Army\10 – What You Don’t Know.wav

Pre-gap length 0:00:02.00

Peak level 99.3 %
Track quality 100.0 %
Test CRC 0B659A1D
Copy CRC 0B659A1D
Cannot be verified as accurate (confidence 8) [2741B9F0], AccurateRip returned [ACA92D92]
Copy OK

Track 11

Filename E:\Rips\1999 – Anti-Flag – A New Kind Of Army\11 – Free Nation .wav

Peak level 99.3 %
Track quality 100.0 %
Test CRC F69BFDC7
Copy CRC F69BFDC7
Cannot be verified as accurate (confidence 8) [0B6D7B48], AccurateRip returned [90EAA56E]
Copy OK

Track 12

Filename E:\Rips\1999 – Anti-Flag – A New Kind Of Army\12 – Outbreak.wav

Pre-gap length 0:00:02.00

Peak level 99.3 %
Track quality 100.0 %
Test CRC 6450249E
Copy CRC 6450249E
Cannot be verified as accurate (confidence 8) [7FFF9826], AccurateRip returned [3AE5BA8E]
Copy OK

Track 13

Filename E:\Rips\1999 – Anti-Flag – A New Kind Of Army\13 – Police Story.wav

Pre-gap length 0:00:01.00

Peak level 99.3 %
Track quality 100.0 %
Test CRC 756D2BF6
Copy CRC 756D2BF6
Cannot be verified as accurate (confidence 8) [BBA8E34F], AccurateRip returned [22AA48FF]
Copy OK

Track 14

Filename E:\Rips\1999 – Anti-Flag – A New Kind Of Army\14 – The Consumer’s Song.wav

Pre-gap length 0:00:02.00

Peak level 70.6 %
Track quality 100.0 %
Test CRC 0D8899FF
Copy CRC 0D8899FF
Cannot be verified as accurate (confidence 8) [6BECB2A9], AccurateRip returned [17D043D9]
Copy OK

Track 15

Filename E:\Rips\1999 – Anti-Flag – A New Kind Of Army\15 – This Is NOT A Crass Song.wav

Peak level 99.3 %
Track quality 99.9 %
Test CRC 29DD6D27
Copy CRC 29DD6D27
Cannot be verified as accurate (confidence 7) [EA67E92F], AccurateRip returned [8464C78F]
Copy OK

No tracks could be verified as accurate
You may have a different pressing from the one(s) in the database

No errors occurred

End of status report

REM GENRE “Punk Rock”
REM DATE 1999
REM DISCID C50A4F0F
REM COMMENT “ExactAudioCopy v0.99pb4”
PERFORMER “Anti-Flag”
TITLE “A New Kind Of Army”
FILE “1999 – Anti-Flag – A New Kind Of Army\01 – Tearing Everyone Down.wav” WAVE
TRACK 01 AUDIO
TITLE “Tearing Everyone Down”
PERFORMER “Anti-Flag”
INDEX 01 00:00:00
FILE “1999 – Anti-Flag – A New Kind Of Army\02 – Captain Anarchy.wav” WAVE
TRACK 02 AUDIO
TITLE “Captain Anarchy”
PERFORMER “Anti-Flag”
INDEX 01 00:00:00
TRACK 03 AUDIO
TITLE “A New Kind of Army”
PERFORMER “Anti-Flag”
INDEX 00 02:32:73
FILE “1999 – Anti-Flag – A New Kind Of Army\03 – A New Kind of Army.wav” WAVE
INDEX 01 00:00:00
TRACK 04 AUDIO
TITLE “That’s Youth”
PERFORMER “Anti-Flag”
INDEX 00 03:40:66
FILE “1999 – Anti-Flag – A New Kind Of Army\04 – That’s Youth.wav” WAVE
INDEX 01 00:00:00
TRACK 05 AUDIO
TITLE “No Apology”
PERFORMER “Anti-Flag”
INDEX 00 03:13:34
FILE “1999 – Anti-Flag – A New Kind Of Army\05 – No Apology.wav” WAVE
INDEX 01 00:00:00
TRACK 06 AUDIO
TITLE “Got The Numbers”
PERFORMER “Anti-Flag”
INDEX 00 02:17:19
FILE “1999 – Anti-Flag – A New Kind Of Army\06 – Got The Numbers.wav” WAVE
INDEX 01 00:00:00
TRACK 07 AUDIO
TITLE “No Difference”
PERFORMER “Anti-Flag”
INDEX 00 03:13:51
FILE “1999 – Anti-Flag – A New Kind Of Army\07 – No Difference.wav” WAVE
INDEX 01 00:00:00
TRACK 08 AUDIO
TITLE “I Don’t Believe”
PERFORMER “Anti-Flag”
INDEX 00 04:02:27
FILE “1999 – Anti-Flag – A New Kind Of Army\08 – I Don’t Believe.wav” WAVE
INDEX 01 00:00:00
TRACK 09 AUDIO
TITLE “Right On”
PERFORMER “Anti-Flag”
INDEX 00 02:27:15
FILE “1999 – Anti-Flag – A New Kind Of Army\09 – Right On.wav” WAVE
INDEX 01 00:00:00
TRACK 10 AUDIO
TITLE “What You Don’t Know”
PERFORMER “Anti-Flag”
INDEX 00 01:20:72
FILE “1999 – Anti-Flag – A New Kind Of Army\10 – What You Don’t Know.wav” WAVE
INDEX 01 00:00:00
FILE “1999 – Anti-Flag – A New Kind Of Army\11 – Free Nation .wav” WAVE
TRACK 11 AUDIO
TITLE “Free Nation?”
PERFORMER “Anti-Flag”
INDEX 01 00:00:00
TRACK 12 AUDIO
TITLE “Outbreak”
PERFORMER “Anti-Flag”
INDEX 00 02:41:43
FILE “1999 – Anti-Flag – A New Kind Of Army\12 – Outbreak.wav” WAVE
INDEX 01 00:00:00
TRACK 13 AUDIO
TITLE “Police Story”
PERFORMER “Anti-Flag”
INDEX 00 00:52:21
FILE “1999 – Anti-Flag – A New Kind Of Army\13 – Police Story.wav” WAVE
INDEX 01 00:00:00
TRACK 14 AUDIO
TITLE “The Consumer’s Song”
PERFORMER “Anti-Flag”
INDEX 00 03:35:27
FILE “1999 – Anti-Flag – A New Kind Of Army\14 – The Consumer’s Song.wav” WAVE
INDEX 01 00:00:00
FILE “1999 – Anti-Flag – A New Kind Of Army\15 – This Is NOT A Crass Song.wav” WAVE
TRACK 15 AUDIO
TITLE “This Is NOT A Crass Song”
PERFORMER “Anti-Flag”
INDEX 01 00:00:00

Spread the Download

Leave a Reply

Your email address will not be published. Required fields are marked *

Enter the text from the image below
 

This site uses Akismet to reduce spam. Learn how your comment data is processed.