Angry Samoans – The Unboxed Set




[Total: 0    Average: 0/5]

Artist: Angry Samoans
Year: 1995
Genre: Hardcore
Notes: Discogs
Add. Notes:
Cover incl.: Yes
Encoder: FLAC
Bitrate: ~900 kBit/s (44.1 kHz/16 Bit/s)
Log & Cue incl.: Yes
Size: 485,08 MB
Password: “slam” (without ” “)


All Downloads/Hosters are compatible

Download 1
Share-online.biz
Rapidgator.net
KatFile.com
UploadRar.com
Download 2
Share-online.biz
Rapidgator.net
KatFile.com
UploadRar.com

Tracklist:

1 - Right Side Of My Mind - 2:09
2 - Gimme Sopor - 1:44
3 - Hot Cars - 0:33
4 - Inside My Brain - 1:36
5 - You Stupid Asshole - 2:09
6 - Get Off The Air - 1:29
7 - My Old Man's A Fatso - 2:55
8 - Carson Girls - 2:48
9 - I'm A Pig - 2:17
10 - Too Animalistic (Live) - 1:59
11 - Right Side Of My Mind - 2:16
12 - Gas Chamber - 1:01
13 - The Todd Killings - 0:38
14 - Lights Out - 0:52
15 - My Old Man's A Fatso - 1:32
16 - Time Has Come Today - 2:07
17 - They Saved Hitler's Cock - 1:40
18 - Homo-Sexual - 0:52
19 - Steak Knife - 1:00
20 - Haizman's Brain Is Calling - 1:56
21 - Tuna Taco - 0:38
22 - Coffin Case - 0:39
23 - You Stupid Jerk - 0:23
24 - Ballad Of Jerry Curlan - 3:08
25 - Not Of This Earth - 1:12
26 - Different World - 1:47
27 - Electrocution - 2:09
28 - It's Raining Today - 2:43
29 - Unhinged - 1:55
30 - Psych-Out 129 - 1:54
31 - Somebody To Love - 1:55
32 - I Lost (My Mynd) - 1:56
33 - Wild Hog Rhyde - 2:07
34 - Laughing At Me - 1:47
35 - STP Not LSD - 2:05
36 - Staring At The Sun - 1:36
37 - Death Of Beewak - 2:07
38 - Egyptomania - 1:37
39 - Attack Of The Mushroom People - 2:44
40 - Feet On The Ground - 1:18
41 - Garbage Pit - 1:40
42 - (I'll Drink To This) Love Song - 2:04
43 - Lost Highway - 2:24

EAC-Log, CUE-Sheed & NFO:

Click to open spoiler
Отчёт EAC об извлечении, выполненном 24. июня
2008, 1:09 для диска:
Angry Samoans / The Unboxed Set

Дисковод: Optiarc DVD RW AD-7203S Adapter: 2 ID: 0
Режим чтения: Достоверный (C2: нет, Точный поток:
да, Отключение кэша: да)
Коррекция смещения при чтении: 48
Способность читать области Lead-in и Lead-out : Нет

Выходной формат: Внутренние WAV-операции
44.100 Гц; 16 бит; стерео

Другие параметры:
Заполнение пропущенных сэмплов тишиной : Да
Удаление блоков с тишиной в начале и конце : Нет
Встроенный Win32-интерфейс для Win NT/2000

Характеристики диапазона извлечения и сообщения
об ошибках
Выбранный диапазон
Имя файла D:\Z_DISTRIBUTIVES\downtor\Angry
Samoans – The Unboxed Set\Angry Samoans – The
Unboxed Set.wav

Пиковый уровень 97.2 %
Качество диапазона 99.9 %
CRC DA553C04
Копирование… OK

Ошибок не произошло

Конец отчёта

REM GENRE Punk/Hardcore
REM DATE 1995
REM DISCID 6911BC2B
REM COMMENT “ExactAudioCopy v0.95b4”
CATALOG 0000000000000
PERFORMER “Angry Samoans”
TITLE “The Unboxed Set”
FILE “Angry Samoans – The Unboxed Set.flac” flac
TRACK 01 AUDIO
TITLE “Right Side of My Mind”
PERFORMER “Angry Samoans”
INDEX 00 00:00:00
INDEX 01 00:00:47
TRACK 02 AUDIO
TITLE “Gimme Sopor”
PERFORMER “Angry Samoans”
INDEX 00 02:08:35
INDEX 01 02:09:60
TRACK 03 AUDIO
TITLE “Hot Cars”
PERFORMER “Angry Samoans”
INDEX 00 03:52:47
INDEX 01 03:54:02
TRACK 04 AUDIO
TITLE “Inside My Brain”
PERFORMER “Angry Samoans”
INDEX 00 04:27:08
INDEX 01 04:27:30
TRACK 05 AUDIO
TITLE “You Stupid Asshole”
PERFORMER “Angry Samoans”
INDEX 01 06:03:45
TRACK 06 AUDIO
TITLE “Get Off the Air”
PERFORMER “Angry Samoans”
INDEX 00 08:11:19
INDEX 01 08:12:65
TRACK 07 AUDIO
TITLE “My Old Man’s a Fatso”
PERFORMER “Angry Samoans”
INDEX 00 09:41:64
INDEX 01 09:42:32
TRACK 08 AUDIO
TITLE “Carson Girls”
PERFORMER “Angry Samoans”
INDEX 00 12:36:58
INDEX 01 12:37:55
TRACK 09 AUDIO
TITLE “I’m a Pig”
PERFORMER “Angry Samoans”
INDEX 00 15:24:45
INDEX 01 15:25:72
TRACK 10 AUDIO
TITLE “Too Animalistic (Live)”
PERFORMER “Angry Samoans”
INDEX 00 17:43:13
INDEX 01 17:43:25
TRACK 11 AUDIO
TITLE “Right Side of My Mind”
PERFORMER “Angry Samoans”
INDEX 01 19:42:55
TRACK 12 AUDIO
TITLE “Gas Chamber”
PERFORMER “Angry Samoans”
INDEX 00 21:54:37
INDEX 01 21:59:17
TRACK 13 AUDIO
TITLE “The Todd Killings”
PERFORMER “Angry Samoans”
INDEX 00 22:58:72
INDEX 01 23:01:00
TRACK 14 AUDIO
TITLE “Lights Out”
PERFORMER “Angry Samoans”
INDEX 00 23:38:02
INDEX 01 23:39:37
TRACK 15 AUDIO
TITLE “My Old Man’s a Fatso”
PERFORMER “Angry Samoans”
INDEX 00 24:29:57
INDEX 01 24:31:72
TRACK 16 AUDIO
TITLE “Time Has Come Today”
PERFORMER “Angry Samoans”
INDEX 00 26:03:27
INDEX 01 26:04:05
TRACK 17 AUDIO
TITLE “They Saved Hitler’s Cock”
PERFORMER “Angry Samoans”
INDEX 00 28:10:06
INDEX 01 28:11:47
TRACK 18 AUDIO
TITLE “Homo-sexual”
PERFORMER “Angry Samoans”
INDEX 00 29:51:37
INDEX 01 29:51:47
TRACK 19 AUDIO
TITLE “Steak Knife”
PERFORMER “Angry Samoans”
INDEX 00 30:42:13
INDEX 01 30:43:60
TRACK 20 AUDIO
TITLE “Haizman’s Brain is Calling”
PERFORMER “Angry Samoans”
INDEX 00 31:42:19
INDEX 01 31:44:22
TRACK 21 AUDIO
TITLE “Tuna Taco”
PERFORMER “Angry Samoans”
INDEX 00 33:38:59
INDEX 01 33:41:05
TRACK 22 AUDIO
TITLE “Coffin Case”
PERFORMER “Angry Samoans”
INDEX 00 34:18:63
INDEX 01 34:20:00
TRACK 23 AUDIO
TITLE “You Stupid Jerk”
PERFORMER “Angry Samoans”
INDEX 00 34:58:51
INDEX 01 34:59:15
TRACK 24 AUDIO
TITLE “Ballad of Jerry Curlan”
PERFORMER “Angry Samoans”
INDEX 00 35:20:39
INDEX 01 35:23:02
TRACK 25 AUDIO
TITLE “Not of This Earth”
PERFORMER “Angry Samoans”
INDEX 01 38:31:35
TRACK 26 AUDIO
TITLE “Different World”
PERFORMER “Angry Samoans”
INDEX 00 39:42:58
INDEX 01 39:43:55
TRACK 27 AUDIO
TITLE “Electrocution”
PERFORMER “Angry Samoans”
INDEX 01 41:30:55
TRACK 28 AUDIO
TITLE “It’s Raining Today”
PERFORMER “Angry Samoans”
INDEX 00 43:40:23
INDEX 01 43:40:47
TRACK 29 AUDIO
TITLE “Unhinged”
PERFORMER “Angry Samoans”
INDEX 00 46:21:65
INDEX 01 46:24:17
TRACK 30 AUDIO
TITLE “Psych-Out 129”
PERFORMER “Angry Samoans”
INDEX 00 48:17:38
INDEX 01 48:19:22
TRACK 31 AUDIO
TITLE “Somebody to Love”
PERFORMER “Angry Samoans”
INDEX 00 50:13:23
INDEX 01 50:14:12
TRACK 32 AUDIO
TITLE “I Lost (My Mind)”
PERFORMER “Angry Samoans”
INDEX 00 52:09:57
INDEX 01 52:09:72
TRACK 33 AUDIO
TITLE “Wild Hog Rhyde”
PERFORMER “Angry Samoans”
INDEX 00 54:04:64
INDEX 01 54:06:02
TRACK 34 AUDIO
TITLE “Laughing at Me”
PERFORMER “Angry Samoans”
INDEX 00 56:13:46
INDEX 01 56:13:57
TRACK 35 AUDIO
TITLE “STP Not LSD”
PERFORMER “Angry Samoans”
INDEX 00 58:01:22
INDEX 01 58:01:32
TRACK 36 AUDIO
TITLE “Staring at the Sun”
PERFORMER “Angry Samoans”
INDEX 01 60:07:20
TRACK 37 AUDIO
TITLE “Death of Beewak”
PERFORMER “Angry Samoans”
INDEX 01 61:43:35
TRACK 38 AUDIO
TITLE “Egyptomania”
PERFORMER “Angry Samoans”
INDEX 00 63:48:27
INDEX 01 63:51:05
TRACK 39 AUDIO
TITLE “Attack of the Mushroom People”
PERFORMER “Angry Samoans”
INDEX 01 65:28:72
TRACK 40 AUDIO
TITLE “Feet on the Ground”
PERFORMER “Angry Samoans”
INDEX 00 68:12:53
INDEX 01 68:13:02
TRACK 41 AUDIO
TITLE “Garbage Pit”
PERFORMER “Angry Samoans”
INDEX 00 69:30:54
INDEX 01 69:31:32
TRACK 42 AUDIO
TITLE “(I’ll Drink to This) Love Song”
PERFORMER “Angry Samoans”
INDEX 00 71:11:27
INDEX 01 71:11:47
TRACK 43 AUDIO
TITLE “Lost Highway”
PERFORMER “Angry Samoans”
INDEX 01 73:16:20


Spread the Download

Leave a Reply

Your email address will not be published. Required fields are marked *

Enter the text from the image below
 

This site uses Akismet to reduce spam. Learn how your comment data is processed.