Alice Cooper – The Alice Cooper Show (Japanese Edition)




[Total: 0    Average: 0/5]

Artist: Alice Cooper
Year: 1977/2012
Genre: Rock
Notes: Discogs
Add. Notes: Japanese Edition
Cover incl.: Yes
Encoder: FLAC
Bitrate: ~900 kBit/s (44.1 kHz/16 Bit/s)
Log & Cue incl.: Yes
Size: 362,31 MB
Password: “slam” (without ” “)


All Downloads/Hosters are compatible

Download 1
Share-online.biz
Rapidgator.net
KatFile.com
UploadRar.com
Download 2
Share-online.biz
Rapidgator.net
KatFile.com
UploadRar.com

Tracklist:

1 - Under My Wheels - 2:30
2 - Eighteen - 4:58
3 - Only Women Bleed - 5:47
4 - Sick Things - 1:01
5 - Is It My Body - 2:28
6 - I Never Cry - 2:51
7 - Billion Dollar Babies - 3:13
8 - Devil's Food / The Black Widow - 5:41
9 - You And Me - 2:19
10 - I Love The Dead / Go To Hell / Wish You Were Here - 
6:31
11 - School's Out - 2:19

EAC-Log, CUE-Sheed & NFO:

Click to open spoiler
Exact Audio Copy V1.0 beta 3 from 29. August 2011

EAC extraction logfile from 5. February 2012, 19:57

Alice Cooper / The Alice Cooper Show

Used drive : HL-DT-STDVDRAM GSA-H60N Adapter: 2 ID: 0

Read mode : Secure
Utilize accurate stream : Yes
Defeat audio cache : Yes
Make use of C2 pointers : No

Read offset correction : 667
Overread into Lead-In and Lead-Out : No
Fill up missing offset samples with silence : Yes
Delete leading and trailing silent blocks : No
Null samples used in CRC calculations : Yes
Used interface : Native Win32 interface for Win NT & 2000

Used output format : Internal WAV Routines
Sample format : 44.100 Hz; 16 Bit; Stereo

TOC of the extracted CD

Track | Start | Length | Start sector | End sector
———————————————————
1 | 0:00.00 | 2:35.23 | 0 | 11647
2 | 2:35.23 | 4:58.27 | 11648 | 34024
3 | 7:33.50 | 5:55.60 | 34025 | 60709
4 | 13:29.35 | 0:59.49 | 60710 | 65183
5 | 14:29.09 | 2:35.43 | 65184 | 76851
6 | 17:04.52 | 2:48.44 | 76852 | 89495
7 | 19:53.21 | 3:17.04 | 89496 | 104274
8 | 23:10.25 | 5:50.70 | 104275 | 130594
9 | 29:01.20 | 2:25.24 | 130595 | 141493
10 | 31:26.44 | 6:36.58 | 141494 | 171251
11 | 38:03.27 | 2:39.70 | 171252 | 183246

Range status and errors

Selected range

Filename C:\Documents and Settings\Admin\Рабочий стол\Lossless Galaxy Rip by ALLexxess\Alice Cooper 12 Mini LP SHM-CD Warner Music Japan 2011-2012\1977 The Alice Cooper Show\Alice Cooper – The Alice Cooper Show.wav

Peak level 100.0 %
Extraction speed 5.6 X
Range quality 100.0 %
Test CRC 667BAAD8
Copy CRC 667BAAD8
Copy OK

No errors occurred

AccurateRip summary

Track 1 not present in database
Track 2 not present in database
Track 3 not present in database
Track 4 not present in database
Track 5 not present in database
Track 6 not present in database
Track 7 not present in database
Track 8 not present in database
Track 9 not present in database
Track 10 not present in database
Track 11 not present in database

None of the tracks are present in the AccurateRip database

End of status report

==== Log checksum 27EFD2DD57A51698FC2534318A6FD6D800F01DAEB5ADD5B73324CBE52342B7C3 ====

REM GENRE “Rock / Hard Rock / Glam Rock”
REM DATE 1977
REM DISCID 98098B0B
REM COMMENT “ExactAudioCopy v1.0b3”
PERFORMER “Alice Cooper”
TITLE “The Alice Cooper Show”
FILE “Alice Cooper – The Alice Cooper Show.flac” WAVE
TRACK 01 AUDIO
TITLE “Under My Wheels”
PERFORMER “Alice Cooper”
INDEX 01 00:00:00
TRACK 02 AUDIO
TITLE “Eighteen”
PERFORMER “Alice Cooper”
INDEX 01 02:35:23
TRACK 03 AUDIO
TITLE “Only Women Bleed”
PERFORMER “Alice Cooper”
INDEX 01 07:33:50
TRACK 04 AUDIO
TITLE “Sick Things”
PERFORMER “Alice Cooper”
INDEX 01 13:29:35
TRACK 05 AUDIO
TITLE “Is It My Body”
PERFORMER “Alice Cooper”
INDEX 01 14:29:09
TRACK 06 AUDIO
TITLE “I Never Cry”
PERFORMER “Alice Cooper”
INDEX 01 17:04:52
TRACK 07 AUDIO
TITLE “Billion Dollar Babies”
PERFORMER “Alice Cooper”
INDEX 01 19:53:21
TRACK 08 AUDIO
TITLE “Devil’s Food / The Black Widow”
PERFORMER “Alice Cooper”
INDEX 01 23:10:25
TRACK 09 AUDIO
TITLE “You And Me”
PERFORMER “Alice Cooper”
INDEX 01 29:01:20
TRACK 10 AUDIO
TITLE “I Love The Dead / Go To Hell / Wish You Were Here”
PERFORMER “Alice Cooper”
INDEX 01 31:26:44
TRACK 11 AUDIO
TITLE “School’s Out”
PERFORMER “Alice Cooper”
INDEX 01 38:03:27


Spread the Download

Leave a Reply

Your email address will not be published. Required fields are marked *

Enter the text from the image below
 

This site uses Akismet to reduce spam. Learn how your comment data is processed.