Aerosmith – Classics Live! II




[Total: 0    Average: 0/5]

Artist: Aerosmith
Year: 1987
Genre: Rock
Notes: Discogs
Add. Notes:
Cover incl.: Yes
Encoder: FLAC
Bitrate: ~900 kBit/s (44.1 kHz/16 Bit/s)
Log & Cue incl.: Yes
Size: 270,79 MB
Password: “slam” (without ” “)


All Downloads/Hosters are compatible

Download 1
Share-online.biz
Rapidgator.net
KatFile.com
UploadRar.com
Download 2
Share-online.biz
Rapidgator.net
KatFile.com
UploadRar.com

Tracklist:

1 - Back In The Saddle - 4:39
2 - Walk This Way - 4:22
3 - Movin' Out - 5:45
4 - Draw The Line - 5:05
5 - Same Old Song And Dance - 5:23
6 - Last Child - 3:44
7 - Let The Music Do The Talking - 5:47
8 - Toys In The Attic - 4:05

EAC-Log, CUE-Sheed & NFO:

Click to open spoiler
Exact Audio Copy V1.0 beta 2 from 29. April 2011

Отчёт EAC об извлечении, выполненном 18. мая 2013, 2:49

Aerosmith / Classics Live! 2

Дисковод: MATSHITADVD-RAM UJ8A0AS Adapter: 1 ID: 0

Режим чтения : Достоверность
Использование точного потока : Да
Отключение кэша аудио : Да
Использование указателей C2 : Нет

Коррекция смещения при чтении : 102
Способность читать области Lead-in и Lead-out : Нет
Заполнение пропущенных сэмплов тишиной : Да
Удаление блоков с тишиной в начале и конце : Нет
При вычислениях CRC использовались нулевые сэмплы : Да
Интерфейс : Встроенный Win32-интерфейс для Win NT/2000

Выходной формат : Пользовательский кодировщик
Выбранный битрейт : 128 kBit/s
Качество : Высокий
Добавление ID3-тега : Нет
Утилита сжатия : C:\Program Files (x86)\Exact Audio Copy\Flac\flac.exe
Дополнительные параметры : -V -8 -T “Date=%year%” -T “Genre=%genre%” %source%

TOC извлечённого CD

Трек | Старт | Длительность | Начальный сектор | Конечный сектор
———————————————————————
1 | 0:00.00 | 4:39.22 | 0 | 20946
2 | 4:39.22 | 4:22.13 | 20947 | 40609
3 | 9:01.35 | 5:44.67 | 40610 | 66476
4 | 14:46.27 | 5:05.50 | 66477 | 89401
5 | 19:52.02 | 5:22.43 | 89402 | 113594
6 | 25:14.45 | 3:44.07 | 113595 | 130401
7 | 28:58.52 | 5:47.05 | 130402 | 156431
8 | 34:45.57 | 4:05.05 | 156432 | 174811

Характеристики диапазона извлечения и сообщения об ошибках

Выбранный диапазон

Имя файла D:\Музыка\torrents\Aerosmith – Discography\Lives\Aerosmith – Classics Live! 2\Aerosmith – Classics Live! 2.wav

Пиковый уровень 75.8 %
Скорость извлечения 1.2 X
Качество диапазона 100.0 %
CRC теста BAD83030
CRC копии BAD83030
Копирование… OK

Ошибок не произошло

Конец отчёта

==== Контрольная сумма отчёта 046BBB633D8AA85B3BFCB78B33B1D7B125525618142A29D803E931D398F64BC9 ====

REM GENRE Hard Rock
REM DATE 1987
REM DISCID 6A091A08
REM COMMENT “ExactAudioCopy v1.0b2”
PERFORMER “Aerosmith”
TITLE “Classics Live! 2 [USA CK 40855]”
FILE “Aerosmith – Classics Live! 2.flac” WAVE
TRACK 01 AUDIO
TITLE “Back In The Saddle”
PERFORMER “Aerosmith”
INDEX 01 00:00:00
TRACK 02 AUDIO
TITLE “Walk This Way”
PERFORMER “Aerosmith”
INDEX 01 04:39:22
TRACK 03 AUDIO
TITLE “Movin’ Out”
PERFORMER “Aerosmith”
INDEX 01 09:01:35
TRACK 04 AUDIO
TITLE “Draw The Line”
PERFORMER “Aerosmith”
INDEX 01 14:46:27
TRACK 05 AUDIO
TITLE “Same Old Song And Dance”
PERFORMER “Aerosmith”
INDEX 01 19:52:02
TRACK 06 AUDIO
TITLE “Last Child”
PERFORMER “Aerosmith”
INDEX 01 25:14:45
TRACK 07 AUDIO
TITLE “Let The Music Do The Talking”
PERFORMER “Aerosmith”
INDEX 01 28:58:52
TRACK 08 AUDIO
TITLE “Toys In The Attic”
PERFORMER “Aerosmith”
INDEX 01 34:45:57


Spread the Download

Leave a Reply

Your email address will not be published. Required fields are marked *

Enter the text from the image below
 

This site uses Akismet to reduce spam. Learn how your comment data is processed.