ACDC – Stiff Upper Lip (Australian Tour Edition)




  • [Total: 0    Average: 0/5]

    Artist: ACDC
    Year: 2000
    Genre: Rock
    Notes: Discogs
    Add. Notes: Australian Tour Edition
    Encoder: FLAC
    Bitrate: ~1000 kBit/s (44.1 kHz/16 Bit/s)
    Size: 711,63 MB
    Password: “slam” (without ” “)


    Tracklist:

    1-1 - Stiff Upper Lip - 3:34
    1-2 - Meltdown - 3:41
    1-3 - House Of Jazz - 3:56
    1-4 - Hold Me Back - 3:59
    1-5 - Safe In New York City - 3:59
    1-6 - Can't Stand Still - 3:41
    1-7 - Can't Stop Rock'N'Roll - 4:02
    1-8 - Satellite Blues - 3:46
    1-9 - Damned - 3:51
    1-10 - Come And Get It - 4:02
    1-11 - All Screwed Up - 4:36
    1-12 - Give It Up - 3:53
    2-1 - Cyberspace - 2:59
    2-2 - Back In Black - 4:10
    2-3 - Hard As A Rock - 4:50
    2-4 - Ballbreaker - 4:41
    2-5 - Whole Lotta Rosie - 5:26
    2-6 - Let There Be Rock - 11:55
    

    EAC-Log, CUE-Sheed & NFO:

    Click to open spoiler
    Exact Audio Copy V0.99 prebeta 5 from 4. May 2009

    EAC Auslese-Logdatei vom 17. Juni 2010, 17:32

    AC-DC / Stiff Upper Lip

    Benutztes Laufwerk : HL-DT-STDVD-ROM GDR-H30N Adapter: 0 ID: 1

    Lesemodus : Sicher
    Benutze Accurate Stream : Ja
    Audio Puffer abgeschaltet : Ja
    Benutze C2 Fehlerinformationen : Nein

    Leseoffset Korrektur : 6
    Überlesen in das Lead-In und Lead-Out : Nein
    Fülle fehlende Offsetsample mit Stille auf : Ja
    Lösche führende und nachfolgende stille Blöcke : Nein
    Null Samples gehen in CRC Berechnungen ein : Ja
    Benutzte Schnittstelle : Installierte externe ASPI Schnittstelle

    Benutztes Ausgabeformat : Interne WAV Routinen
    Sampleformat : 44.100 Hz; 16 Bit; Stereo

    TOC der ausgelesenen CD

    Track | Start | Länge | Startsektor | Endsektor
    ——————————————————-
    1 | 0:00.00 | 3:34.42 | 0 | 16091
    2 | 3:34.42 | 3:41.05 | 16092 | 32671
    3 | 7:15.47 | 3:56.32 | 32672 | 50403
    4 | 11:12.04 | 3:59.10 | 50404 | 68338
    5 | 15:11.14 | 3:59.35 | 68339 | 86298
    6 | 19:10.49 | 3:41.30 | 86299 | 102903
    7 | 22:52.04 | 4:02.00 | 102904 | 121053
    8 | 26:54.04 | 3:46.25 | 121054 | 138028
    9 | 30:40.29 | 3:52.10 | 138029 | 155438
    10 | 34:32.39 | 4:02.45 | 155439 | 173633
    11 | 38:35.09 | 4:36.30 | 173634 | 194363
    12 | 43:11.39 | 3:55.52 | 194364 | 212040

    Bereichsstatus und Fehler

    Gewählter Bereich

    Dateiname L:\Audi\ACDC\Original Albums\2000 – Stiff Upper Lip (Australian Tour Edition)\AC-DC – Stiff Upper Lip.wav

    Spitzenpegel 100.0 %
    Bereichsqualität 99.9 %
    Kopie CRC A038D576
    Kopie OK

    Keine Fehler aufgetreten

    AccurateRip Übersicht

    Track 1 akkurat gelesen (Zuversicht 8) [549DEDFA]
    Track 2 akkurat gelesen (Zuversicht 7) [A294356A]
    Track 3 akkurat gelesen (Zuversicht 7) [016C0432]
    Track 4 akkurat gelesen (Zuversicht 8) [9CE729BB]
    Track 5 akkurat gelesen (Zuversicht 8) [571EA455]
    Track 6 akkurat gelesen (Zuversicht 7) [97D43AE1]
    Track 7 akkurat gelesen (Zuversicht 8) [7E9AFD57]
    Track 8 akkurat gelesen (Zuversicht 8) [48D6747C]
    Track 9 akkurat gelesen (Zuversicht 7) [C2D22ED3]
    Track 10 akkurat gelesen (Zuversicht 7) [A1B855E0]
    Track 11 akkurat gelesen (Zuversicht 7) [215A8897]
    Track 12 akkurat gelesen (Zuversicht 7) [F1DACFE5]

    Alle Tracks wurden akkurat gelesen

    Ende des Statusreports

    Exact Audio Copy V0.99 prebeta 5 from 4. May 2009

    EAC Auslese-Logdatei vom 17. Juni 2010, 17:38

    AC-DC / Stiff Upper Lip (Australian Tour Edition) Disc 2

    Benutztes Laufwerk : HL-DT-STDVD-ROM GDR-H30N Adapter: 0 ID: 1

    Lesemodus : Sicher
    Benutze Accurate Stream : Ja
    Audio Puffer abgeschaltet : Ja
    Benutze C2 Fehlerinformationen : Nein

    Leseoffset Korrektur : 6
    Überlesen in das Lead-In und Lead-Out : Nein
    Fülle fehlende Offsetsample mit Stille auf : Ja
    Lösche führende und nachfolgende stille Blöcke : Nein
    Null Samples gehen in CRC Berechnungen ein : Ja
    Benutzte Schnittstelle : Installierte externe ASPI Schnittstelle

    Benutztes Ausgabeformat : Interne WAV Routinen
    Sampleformat : 44.100 Hz; 16 Bit; Stereo

    TOC der ausgelesenen CD

    Track | Start | Länge | Startsektor | Endsektor
    ——————————————————-
    1 | 0:00.00 | 2:59.67 | 0 | 13491
    2 | 2:59.67 | 4:10.19 | 13492 | 32260
    3 | 7:10.11 | 4:50.55 | 32261 | 54065
    4 | 12:00.66 | 4:41.37 | 54066 | 75177
    5 | 16:42.28 | 5:26.62 | 75178 | 99689
    6 | 22:09.15 | 11:53.33 | 99690 | 153197
    7 | 36:34.48 | 29:24.34 | 164598 | 296931

    Bereichsstatus und Fehler

    Gewählter Bereich

    Dateiname L:\Audi\ACDC\Original Albums\2000 – Stiff Upper Lip (Australian Tour Edition)\AC-DC – Stiff Upper Lip (Australian Tour Edition) Disc 2.wav

    Spitzenpegel 100.0 %
    Bereichsqualität 100.0 %
    Kopie CRC E6F42FAF
    Kopie OK

    Keine Fehler aufgetreten

    AccurateRip Übersicht

    Track 1 akkurat gelesen (Zuversicht 3) [14EA3872]
    Track 2 akkurat gelesen (Zuversicht 3) [043C1542]
    Track 3 akkurat gelesen (Zuversicht 3) [0E7FCF1C]
    Track 4 akkurat gelesen (Zuversicht 3) [9C31C6E7]
    Track 5 akkurat gelesen (Zuversicht 3) [1B2E175F]
    Track 6 akkurat gelesen (Zuversicht 3) [985FD543]

    Alle Tracks wurden akkurat gelesen

    Ende des Statusreports

    REM GENRE “Hard Rock”
    REM DATE 2000
    REM DISCID 990B0B0C
    REM COMMENT “ExactAudioCopy v0.99pb5”
    PERFORMER “AC-DC”
    TITLE “Stiff Upper Lip”
    FILE “AC-DC – Stiff Upper Lip.flac” WAVE
    TRACK 01 AUDIO
    TITLE “Stiff Upper Lip”
    PERFORMER “AC-DC”
    INDEX 01 00:00:00
    TRACK 02 AUDIO
    TITLE “Meltdown”
    PERFORMER “AC-DC”
    INDEX 01 03:34:42
    TRACK 03 AUDIO
    TITLE “House Of Jazz”
    PERFORMER “AC-DC”
    INDEX 01 07:15:47
    TRACK 04 AUDIO
    TITLE “Hold Me Back”
    PERFORMER “AC-DC”
    INDEX 01 11:12:04
    TRACK 05 AUDIO
    TITLE “Safe In New York City”
    PERFORMER “AC-DC”
    INDEX 01 15:11:14
    TRACK 06 AUDIO
    TITLE “Can’t Stand Still”
    PERFORMER “AC-DC”
    INDEX 01 19:10:49
    TRACK 07 AUDIO
    TITLE “Can’t Stop Rock ‘N’ Roll”
    PERFORMER “AC-DC”
    INDEX 01 22:52:04
    TRACK 08 AUDIO
    TITLE “Satellite Blues”
    PERFORMER “AC-DC”
    INDEX 01 26:54:04
    TRACK 09 AUDIO
    TITLE “Damned”
    PERFORMER “AC-DC”
    INDEX 01 30:40:29
    TRACK 10 AUDIO
    TITLE “Come And Get It”
    PERFORMER “AC-DC”
    INDEX 01 34:32:39
    TRACK 11 AUDIO
    TITLE “All Screwed Up”
    PERFORMER “AC-DC”
    INDEX 01 38:35:09
    TRACK 12 AUDIO
    TITLE “Give It Up”
    PERFORMER “AC-DC”
    INDEX 01 43:11:39

    REM GENRE “Hard Rock”
    REM DATE 2000
    REM DISCID 3F0F7707
    REM COMMENT “ExactAudioCopy v0.99pb5”
    PERFORMER “AC-DC”
    TITLE “Stiff Upper Lip (Australian Tour Edition) Disc 2”
    FILE “AC-DC – Stiff Upper Lip (Australian Tour Edition) Disc 2.flac” WAVE
    TRACK 01 AUDIO
    TITLE “Cyberspace (Non LP-Track)”
    PERFORMER “AC-DC”
    INDEX 01 00:00:00
    TRACK 02 AUDIO
    TITLE “Back In Black (Live In Madrid 1996)”
    PERFORMER “AC-DC”
    INDEX 00 02:57:67
    INDEX 01 02:59:67
    TRACK 03 AUDIO
    TITLE “Hard As A Rock (Live In Madrid 1996)”
    PERFORMER “AC-DC”
    INDEX 00 07:08:11
    INDEX 01 07:10:11
    TRACK 04 AUDIO
    TITLE “Ballbreaker (Live In Madrid 1996)”
    PERFORMER “AC-DC”
    INDEX 00 11:58:66
    INDEX 01 12:00:66
    TRACK 05 AUDIO
    TITLE “Whole Lotta Rosie (Live In Madrid 1996)”
    PERFORMER “AC-DC”
    INDEX 00 16:40:28
    INDEX 01 16:42:28
    TRACK 06 AUDIO
    TITLE “Let There Be Rock (Live In Madrid 1996)”
    PERFORMER “AC-DC”
    INDEX 00 22:07:15
    INDEX 01 22:09:15

    Author: Chaos

    Leave a Reply

    Your email address will not be published. Required fields are marked *

    This site uses Akismet to reduce spam. Learn how your comment data is processed.