ACDC – Live at River Plate




[Total: 0    Average: 0/5]

Artist: ACDC
Year: 2012
Genre: Rock
Notes: Discogs
Add. Notes:
Encoder: FLAC
Bitrate: ~1000 kBit/s (44.1 kHz/16 Bit/s)
Size: 897,54 MB
Password: “slam” (without ” “)


Tracklist:

1-01 - Rock N Roll Train - 4:41
1-02 - Hell Ain't A Bad Place To Be - 4:28
1-03 - Back In Black - 4:15
1-04 - Big Jack - 4:08
1-05 - Dirty Deeds Done Dirt Cheap - 4:59
1-06 - Shot Down In Flames - 3:47
1-07 - Thunderstruck - 5:32
1-08 - Black Ice - 3:44
1-09 - The Jack - 10:12
1-10 - Hells Bells - 5:38
2-01 - Shoot To Thrill - 5:56
2-02 - War Machine - 3:39
2-03 - Dog Eat Dog - 5:10
2-04 - You Shook Me All Night Long - 4:02
2-05 - T.N.T. - 3:57
2-06 - Whole Lotta Rosie - 5:58
2-07 - Let There Be Rock - 18:07
2-08 - Highway To Hell - 4:44
2-09 - For Those About To Rock (We Salute You) - 7:45

EAC-Log, CUE-Sheed & NFO:

Click to open spoiler
Exact Audio Copy V0.99 prebeta 5 from 4. May 2009

EAC extraction logfile from 30. November 2012, 19:44

AC-DC / Live At River Plate – Disc 1

Used drive : HL-DT-STDVD-RAM GH22NP20 Adapter: 0 ID: 0

Read mode : Secure
Utilize accurate stream : Yes
Defeat audio cache : Yes
Make use of C2 pointers : No

Read offset correction : 102
Overread into Lead-In and Lead-Out : No
Fill up missing offset samples with silence : Yes
Delete leading and trailing silent blocks : No
Null samples used in CRC calculations : Yes
Used interface : Native Win32 interface for Win NT & 2000

Used output format : User Defined Encoder
Selected bitrate : 32 kBit/s
Quality : High
Add ID3 tag : No
Command line compressor : C:\Programme\Exact Audio Copy\FLAC.EXE
Additional command line options : -6 -V %s

TOC of the extracted CD

Track | Start | Length | Start sector | End sector
———————————————————
1 | 0:00.00 | 4:41.21 | 0 | 21095
2 | 4:41.21 | 4:27.45 | 21096 | 41165
3 | 9:08.66 | 4:15.04 | 41166 | 60294
4 | 13:23.70 | 4:07.72 | 60295 | 78891
5 | 17:31.67 | 4:58.62 | 78892 | 101303
6 | 22:30.54 | 3:47.30 | 101304 | 118358
7 | 26:18.09 | 5:32.37 | 118359 | 143295
8 | 31:50.46 | 3:44.05 | 143296 | 160100
9 | 35:34.51 | 10:12.36 | 160101 | 206036
10 | 45:47.12 | 5:37.60 | 206037 | 231371

Range status and errors

Selected range

Filename D:\MMT\AC-DC [2012] [2CD] Live at River Plate [EAC-FLAC] by Long Metalhead [MeTaLMaDNeSS.TeaM]\Live at River Plate\CD1\AC-DC – Live At River Plate – Disc 1.wav

Peak level 100.0 %
Range quality 100.0 %
Copy CRC 5EF8EFC0
Copy OK

No errors occurred

AccurateRip summary

Track 1 not present in database
Track 2 not present in database
Track 3 not present in database
Track 4 not present in database
Track 5 not present in database
Track 6 not present in database
Track 7 not present in database
Track 8 not present in database
Track 9 not present in database
Track 10 not present in database

None of the tracks are present in the AccurateRip database

End of status report

Exact Audio Copy V0.99 prebeta 5 from 4. May 2009

EAC extraction logfile from 30. November 2012, 20:13

AC-DC / Live At River Plate – Disc 2

Used drive : HL-DT-STDVD-RAM GH22NP20 Adapter: 0 ID: 0

Read mode : Secure
Utilize accurate stream : Yes
Defeat audio cache : Yes
Make use of C2 pointers : No

Read offset correction : 102
Overread into Lead-In and Lead-Out : No
Fill up missing offset samples with silence : Yes
Delete leading and trailing silent blocks : No
Null samples used in CRC calculations : Yes
Used interface : Native Win32 interface for Win NT & 2000

Used output format : User Defined Encoder
Selected bitrate : 32 kBit/s
Quality : High
Add ID3 tag : No
Command line compressor : C:\Programme\Exact Audio Copy\FLAC.EXE
Additional command line options : -6 -V %s

TOC of the extracted CD

Track | Start | Length | Start sector | End sector
———————————————————
1 | 0:00.00 | 5:55.74 | 0 | 26698
2 | 5:55.74 | 3:39.15 | 26699 | 43138
3 | 9:35.14 | 5:09.66 | 43139 | 66379
4 | 14:45.05 | 4:01.49 | 66380 | 84503
5 | 18:46.54 | 3:57.25 | 84504 | 102303
6 | 22:44.04 | 5:57.44 | 102304 | 129122
7 | 28:41.48 | 18:06.64 | 129123 | 210636
8 | 46:48.37 | 4:44.19 | 210637 | 231955
9 | 51:32.56 | 7:45.32 | 231956 | 266862

Range status and errors

Selected range

Filename D:\MMT\AC-DC [2012] [2CD] Live at River Plate [EAC-FLAC] by Long Metalhead [MeTaLMaDNeSS.TeaM]\Live at River Plate\CD2\AC-DC – Live At River Plate – Disc 2.wav

Peak level 100.0 %
Range quality 100.0 %
Copy CRC 5BD408B9
Copy OK

No errors occurred

AccurateRip summary

Track 1 not present in database
Track 2 not present in database
Track 3 not present in database
Track 4 not present in database
Track 5 not present in database
Track 6 not present in database
Track 7 not present in database
Track 8 not present in database
Track 9 not present in database

None of the tracks are present in the AccurateRip database

End of status report

REM GENRE Rock
REM DATE 2012
REM DISCID 770C0C0A
REM COMMENT “ExactAudioCopy v0.99pb5”
PERFORMER “AC-DC”
TITLE “Live At River Plate – Disc 1”
FILE “AC-DC – Live At River Plate – Disc 1.flac” WAVE
TRACK 01 AUDIO
TITLE “Rock N Roll Train”
PERFORMER “AC-DC”
INDEX 01 00:00:00
TRACK 02 AUDIO
TITLE “Hell Ain’t A Bad Place To Be”
PERFORMER “AC-DC”
INDEX 01 04:41:21
TRACK 03 AUDIO
TITLE “Back In Black”
PERFORMER “AC-DC”
INDEX 01 09:08:66
TRACK 04 AUDIO
TITLE “Big Jack”
PERFORMER “AC-DC”
INDEX 01 13:23:70
TRACK 05 AUDIO
TITLE “Dirty Deeds Done Dirt Cheap”
PERFORMER “AC-DC”
INDEX 01 17:31:67
TRACK 06 AUDIO
TITLE “Shot Down In Flames”
PERFORMER “AC-DC”
INDEX 01 22:30:54
TRACK 07 AUDIO
TITLE “Thunderstruck”
PERFORMER “AC-DC”
INDEX 01 26:18:09
TRACK 08 AUDIO
TITLE “Black Ice”
PERFORMER “AC-DC”
INDEX 01 31:50:46
TRACK 09 AUDIO
TITLE “The Jack”
PERFORMER “AC-DC”
INDEX 01 35:34:51
TRACK 10 AUDIO
TITLE “Hells Bells”
PERFORMER “AC-DC”
INDEX 01 45:47:12

REM GENRE Rock
REM DATE 2012
REM DISCID 7F0DE609
REM COMMENT “ExactAudioCopy v0.99pb5”
PERFORMER “AC-DC”
TITLE “Live At River Plate – Disc 2”
FILE “AC-DC – Live At River Plate – Disc 2.flac” WAVE
TRACK 01 AUDIO
TITLE “Shoot To Thrill”
PERFORMER “AC-DC”
INDEX 01 00:00:00
TRACK 02 AUDIO
TITLE “War Machine”
PERFORMER “AC-DC”
INDEX 01 05:55:74
TRACK 03 AUDIO
TITLE “Dog Eat Dog”
PERFORMER “AC-DC”
INDEX 01 09:35:14
TRACK 04 AUDIO
TITLE “You Shook Me All Night Long”
PERFORMER “AC-DC”
INDEX 01 14:45:05
TRACK 05 AUDIO
TITLE “T.N.T.”
PERFORMER “AC-DC”
INDEX 01 18:46:54
TRACK 06 AUDIO
TITLE “Whole Lotta Rosie”
PERFORMER “AC-DC”
INDEX 01 22:44:04
TRACK 07 AUDIO
TITLE “Let There Be Rock”
PERFORMER “AC-DC”
INDEX 01 28:41:48
TRACK 08 AUDIO
TITLE “Highway To Hell”
PERFORMER “AC-DC”
INDEX 01 46:48:37
TRACK 09 AUDIO
TITLE “For Those About To Rock (We Salute You)”
PERFORMER “AC-DC”
INDEX 01 51:32:56

Spread the Download

Leave a Reply

Your email address will not be published. Required fields are marked *

Enter the text from the image below
 

This site uses Akismet to reduce spam. Learn how your comment data is processed.