ACDC – Iron Man 2




[Total: 0    Average: 0/5]

Artist: ACDC
Year: 2010
Genre: Rock
Notes: Discogs
Add. Notes:
Encoder: FLAC
Bitrate: ~1000 kBit/s (44.1 kHz/16 Bit/s)
Size: 855,54 MB
Password: “slam” (without ” “)


Tracklist:

1 - Shoot To Thrill - 5:19
2 - Rock 'N' Roll Damnation - 3:38
3 - Guns For Hire - 3:26
4 - Cold Hearted Man - 3:35
5 - Back In Black - 4:17
6 - Thunderstruck - 4:53
7 - If You Want Blood (You've Got It) - 4:35
8 - Evil Walks - 4:25
9 - T.N.T. - 3:35
10 - Hell Ain't A Bad Place To Be - 4:15
11 - Have A Drink On Me - 4:00
12 - The Razors Edge - 4:24
13 - Let There Be Rock - 6:07
14 - War Machine - 3:11
15 - Highway To Hell - 3:28

EAC-Log, CUE-Sheed & NFO:

Click to open spoiler
Exact Audio Copy V0.99 prebeta 5 from 4. May 2009

EAC Auslese-Logdatei vom 19. Juni 2010, 21:55

AC DC / IRON MAN 2

Benutztes Laufwerk : HL-DT-STDVD-ROM GDR-H30N Adapter: 0 ID: 1

Lesemodus : Sicher
Benutze Accurate Stream : Ja
Audio Puffer abgeschaltet : Ja
Benutze C2 Fehlerinformationen : Nein

Leseoffset Korrektur : 6
Überlesen in das Lead-In und Lead-Out : Nein
Fülle fehlende Offsetsample mit Stille auf : Ja
Lösche führende und nachfolgende stille Blöcke : Nein
Null Samples gehen in CRC Berechnungen ein : Ja
Benutzte Schnittstelle : Installierte externe ASPI Schnittstelle

Benutztes Ausgabeformat : Interne WAV Routinen
Sampleformat : 44.100 Hz; 16 Bit; Stereo

TOC der ausgelesenen CD

Track | Start | Länge | Startsektor | Endsektor
——————————————————-
1 | 0:00.00 | 5:19.18 | 0 | 23942
2 | 5:19.18 | 3:38.29 | 23943 | 40321
3 | 8:57.47 | 3:26.14 | 40322 | 55785
4 | 12:23.61 | 3:35.66 | 55786 | 71976
5 | 15:59.52 | 4:17.12 | 71977 | 91263
6 | 20:16.64 | 4:53.63 | 91264 | 113301
7 | 25:10.52 | 4:35.23 | 113302 | 133949
8 | 29:46.00 | 4:25.22 | 133950 | 153846
9 | 34:11.22 | 3:35.32 | 153847 | 170003
10 | 37:46.54 | 4:15.05 | 170004 | 189133
11 | 42:01.59 | 4:00.24 | 189134 | 207157
12 | 46:02.08 | 4:24.08 | 207158 | 226965
13 | 50:26.16 | 6:07.64 | 226966 | 254554
14 | 56:34.05 | 3:11.16 | 254555 | 268895
15 | 59:45.21 | 3:28.69 | 268896 | 284564

Bereichsstatus und Fehler

Gewählter Bereich

Dateiname L:\Audi\ACDC\Original Albums\2010 – Iron Man 2\AC DC – IRON MAN 2.wav

Spitzenpegel 99.9 %
Bereichsqualität 100.0 %
Kopie CRC 9DA36AE5
Kopie OK

Keine Fehler aufgetreten

AccurateRip Übersicht

Track 1 akkurat gelesen (Zuversicht 53) [A27708D0]
Track 2 akkurat gelesen (Zuversicht 53) [81F351C6]
Track 3 akkurat gelesen (Zuversicht 53) [8B6A0585]
Track 4 akkurat gelesen (Zuversicht 53) [9CC9693D]
Track 5 akkurat gelesen (Zuversicht 53) [572621DF]
Track 6 akkurat gelesen (Zuversicht 53) [EA1BDDA9]
Track 7 akkurat gelesen (Zuversicht 53) [98A634C0]
Track 8 akkurat gelesen (Zuversicht 53) [3488421D]
Track 9 akkurat gelesen (Zuversicht 53) [2CBC5471]
Track 10 akkurat gelesen (Zuversicht 53) [4AA5B7D7]
Track 11 akkurat gelesen (Zuversicht 53) [8B6F42AC]
Track 12 akkurat gelesen (Zuversicht 53) [902EAB37]
Track 13 akkurat gelesen (Zuversicht 53) [5D6512B3]
Track 14 akkurat gelesen (Zuversicht 53) [4D1C8423]
Track 15 akkurat gelesen (Zuversicht 52) [0E555223]

Alle Tracks wurden akkurat gelesen

Ende des Statusreports

REM GENRE “Hard Rock”
REM DATE 2010
REM DISCID DA0ED20F
REM COMMENT “ExactAudioCopy v0.99pb5”
PERFORMER “AC DC”
TITLE “IRON MAN 2”
FILE “AC DC – IRON MAN 2.flac” WAVE
TRACK 01 AUDIO
TITLE “Shoot To Thrill”
PERFORMER “AC DC”
INDEX 01 00:00:00
TRACK 02 AUDIO
TITLE “Rock’N’Roll Damnation”
PERFORMER “AC DC”
INDEX 00 05:17:60
INDEX 01 05:19:18
TRACK 03 AUDIO
TITLE “Guns For Hire”
PERFORMER “AC DC”
INDEX 00 08:56:13
INDEX 01 08:57:47
TRACK 04 AUDIO
TITLE “Cold Hearted Man”
PERFORMER “AC DC”
INDEX 00 12:22:23
INDEX 01 12:23:61
TRACK 05 AUDIO
TITLE “Back In Black”
PERFORMER “AC DC”
INDEX 00 15:58:14
INDEX 01 15:59:52
TRACK 06 AUDIO
TITLE “Thunderstruck”
PERFORMER “AC DC”
INDEX 00 20:15:25
INDEX 01 20:16:64
TRACK 07 AUDIO
TITLE “If You Want Blood”
PERFORMER “AC DC”
INDEX 00 25:09:20
INDEX 01 25:10:52
TRACK 08 AUDIO
TITLE “Evil Walks”
PERFORMER “AC DC”
INDEX 00 29:44:40
INDEX 01 29:46:00
TRACK 09 AUDIO
TITLE “TNT”
PERFORMER “AC DC”
INDEX 00 34:09:59
INDEX 01 34:11:22
TRACK 10 AUDIO
TITLE “Hell Ain’t A Bad Place To Be”
PERFORMER “AC DC”
INDEX 00 37:45:21
INDEX 01 37:46:54
TRACK 11 AUDIO
TITLE “Have A Drink On Me”
PERFORMER “AC DC”
INDEX 00 42:00:26
INDEX 01 42:01:59
TRACK 12 AUDIO
TITLE “The Razors Edge”
PERFORMER “AC DC”
INDEX 00 46:00:52
INDEX 01 46:02:08
TRACK 13 AUDIO
TITLE “Let There Be Rock”
PERFORMER “AC DC”
INDEX 00 50:24:48
INDEX 01 50:26:16
TRACK 14 AUDIO
TITLE “War Machine”
PERFORMER “AC DC”
INDEX 00 56:32:48
INDEX 01 56:34:05
TRACK 15 AUDIO
TITLE “Highway To Hell”
PERFORMER “AC DC”
INDEX 00 59:43:59
INDEX 01 59:45:21

Spread the Download

Leave a Reply

Your email address will not be published. Required fields are marked *

Enter the text from the image below
 

This site uses Akismet to reduce spam. Learn how your comment data is processed.