ACDC – High Voltage




[Total: 0    Average: 0/5]

Artist: ACDC
Year: 1974/1987
Genre: Rock
Notes: Discogs
Add. Notes:
Encoder: FLAC
Bitrate: ~900 kBit/s (44.1 kHz/16 Bit/s)
Size: 347,31 MB
Password: “slam” (without ” “)


http://www.share-online.biz/dl/FWCLLCRPX7E
https://rapidgator.net/file/7dee4beb31452216abe1ef96413a45ab
https://ayefiles.com/e8mllhmidv4m/ACD-1974-HiVo-AuRe.rar.html
https://hitfile.net/meba6eX

Onlinestatus: Share-online.biz Rapidgator.net AyeFiles.com Hitfile.net

Tracklist:

1 - Baby Please Don't Go - 4:53
2 - She's Got Balls - 4:53
3 - Little Lover - 5:47
4 - Stick Around - 4:45
5 - Soul Stripper - 6:31
6 - You Ain't Got A Hold On Me - 3:36
7 - Love Song - 5:27
8 - Show Business - 4:47

EAC-Log, CUE-Sheed & NFO:

Click to open spoiler
Exact Audio Copy V0.99 prebeta 5 from 4. May 2009

EAC Auslese-Logdatei vom 12. Juni 2010, 22:36

AC – DC / High Voltage (Austrailian Version)

Benutztes Laufwerk : HL-DT-STDVD-ROM GDR-H30N Adapter: 0 ID: 1

Lesemodus : Sicher
Benutze Accurate Stream : Ja
Audio Puffer abgeschaltet : Ja
Benutze C2 Fehlerinformationen : Nein

Leseoffset Korrektur : 6
Überlesen in das Lead-In und Lead-Out : Nein
Fülle fehlende Offsetsample mit Stille auf : Ja
Lösche führende und nachfolgende stille Blöcke : Nein
Null Samples gehen in CRC Berechnungen ein : Ja
Benutzte Schnittstelle : Installierte externe ASPI Schnittstelle

Benutztes Ausgabeformat : Interne WAV Routinen
Sampleformat : 44.100 Hz; 16 Bit; Stereo

TOC der ausgelesenen CD

Track | Start | Länge | Startsektor | Endsektor
——————————————————-
1 | 0:00.00 | 4:50.60 | 0 | 21809
2 | 4:50.60 | 4:48.20 | 21810 | 43429
3 | 9:39.05 | 5:38.65 | 43430 | 68844
4 | 15:17.70 | 4:39.27 | 68845 | 89796
5 | 19:57.22 | 6:25.13 | 89797 | 118684
6 | 26:22.35 | 3:33.12 | 118685 | 134671
7 | 29:55.47 | 5:17.63 | 134672 | 158509
8 | 35:13.35 | 4:46.25 | 158510 | 179984

Bereichsstatus und Fehler

Gewählter Bereich

Dateiname K:\Audi\ACDC\1995 Australian Edition\1974 – High Voltage\AC – DC – High Voltage (Austrailian Version).wav

Spitzenpegel 100.0 %
Bereichsqualität 99.9 %
Kopie CRC 1EDC3339
Kopie OK

Keine Fehler aufgetreten

AccurateRip Übersicht

Track 1 akkurat gelesen (Zuversicht 9) [BF4F28A3]
Track 2 akkurat gelesen (Zuversicht 9) [4F755955]
Track 3 akkurat gelesen (Zuversicht 9) [4C9FE477]
Track 4 akkurat gelesen (Zuversicht 9) [63470A49]
Track 5 akkurat gelesen (Zuversicht 9) [236226C1]
Track 6 akkurat gelesen (Zuversicht 9) [8F5A8625]
Track 7 akkurat gelesen (Zuversicht 9) [1BAEFE29]
Track 8 akkurat gelesen (Zuversicht 8) [5B1565E5]

Alle Tracks wurden akkurat gelesen

Ende des Statusreports

REM GENRE Rock
REM DATE 1974
REM DISCID 77095F08
REM COMMENT “ExactAudioCopy v0.99pb5”
PERFORMER “AC – DC”
TITLE “High Voltage (Austrailian Version)”
FILE “AC – DC – High Voltage (Austrailian Version).flac” WAVE
TRACK 01 AUDIO
TITLE “Baby, Please Don’t Go”
PERFORMER “AC – DC”
INDEX 01 00:00:00
TRACK 02 AUDIO
TITLE “She’s Got Balls”
PERFORMER “AC – DC”
INDEX 01 04:50:60
TRACK 03 AUDIO
TITLE “Little Lover”
PERFORMER “AC – DC”
INDEX 01 09:39:05
TRACK 04 AUDIO
TITLE “Stick Around”
PERFORMER “AC – DC”
INDEX 01 15:17:70
TRACK 05 AUDIO
TITLE “Soul Stripper”
PERFORMER “AC – DC”
INDEX 01 19:57:22
TRACK 06 AUDIO
TITLE “You Ain’t Got A Hold On Me”
PERFORMER “AC – DC”
INDEX 01 26:22:35
TRACK 07 AUDIO
TITLE “Love Song”
PERFORMER “AC – DC”
INDEX 01 29:55:47
TRACK 08 AUDIO
TITLE “Show Business”
PERFORMER “AC – DC”
INDEX 01 35:13:35

Spread the Download

Leave a Reply

Your email address will not be published. Required fields are marked *

Enter the text from the image below
 

This site uses Akismet to reduce spam. Learn how your comment data is processed.