ACDC – Flick Of The Switch (Remastered)




  • [Total: 0    Average: 0/5]

    Artist: ACDC
    Year: 1983/1995
    Genre: Rock
    Notes: Discogs
    Add. Notes: Remastered
    Encoder: FLAC
    Bitrate: ~1000 kBit/s (44.1 kHz/16 Bit/s)
    Size: 298,88 MB
    Password: “slam” (without ” “)


    Tracklist:

    1 - Rising Power - 3:42
    2 - This House Is On Fire - 3:22
    3 - Flick Of The Switch - 3:13
    4 - Nervous Shakedown - 4:26
    5 - Landslide - 3:56
    6 - Guns For Hire - 3:24
    7 - Deep In The Hole - 3:19
    8 - Bedlam In Belgium - 3:51
    9 - Badlands - 3:37
    10 - Brain Shake - 3:58
    

    EAC-Log, CUE-Sheed & NFO:

    Click to open spoiler
    Exact Audio Copy V0.99 prebeta 5 from 4. May 2009

    EAC Auslese-Logdatei vom 14. Juni 2010, 17:14

    AC-DC / Flick Of The Switch

    Benutztes Laufwerk : HL-DT-STDVD-ROM GDR-H30N Adapter: 0 ID: 1

    Lesemodus : Sicher
    Benutze Accurate Stream : Ja
    Audio Puffer abgeschaltet : Ja
    Benutze C2 Fehlerinformationen : Nein

    Leseoffset Korrektur : 6
    Überlesen in das Lead-In und Lead-Out : Nein
    Fülle fehlende Offsetsample mit Stille auf : Ja
    Lösche führende und nachfolgende stille Blöcke : Nein
    Null Samples gehen in CRC Berechnungen ein : Ja
    Benutzte Schnittstelle : Installierte externe ASPI Schnittstelle

    Benutztes Ausgabeformat : Interne WAV Routinen
    Sampleformat : 44.100 Hz; 16 Bit; Stereo

    TOC der ausgelesenen CD

    Track | Start | Länge | Startsektor | Endsektor
    ——————————————————-
    1 | 0:00.00 | 3:43.12 | 0 | 16736
    2 | 3:43.12 | 3:23.50 | 16737 | 32011
    3 | 7:06.62 | 3:13.55 | 32012 | 46541
    4 | 10:20.42 | 4:27.18 | 46542 | 66584
    5 | 14:47.60 | 3:58.02 | 66585 | 84436
    6 | 18:45.62 | 3:24.58 | 84437 | 99794
    7 | 22:10.45 | 3:19.50 | 99795 | 114769
    8 | 25:30.20 | 3:52.25 | 114770 | 132194
    9 | 29:22.45 | 3:38.50 | 132195 | 148594
    10 | 33:01.20 | 3:59.37 | 148595 | 166556

    Bereichsstatus und Fehler

    Gewählter Bereich

    Dateiname K:\Audi\ACDC\1995 Australian Edition\1983 – Flick Of The Switch\AC-DC – Flick Of The Switch.wav

    Spitzenpegel 100.0 %
    Bereichsqualität 100.0 %
    Kopie CRC 22F3B860
    Kopie OK

    Keine Fehler aufgetreten

    AccurateRip Übersicht

    Track 1 nicht in Datenbank enthalten
    Track 2 nicht in Datenbank enthalten
    Track 3 nicht in Datenbank enthalten
    Track 4 nicht in Datenbank enthalten
    Track 5 nicht in Datenbank enthalten
    Track 6 nicht in Datenbank enthalten
    Track 7 nicht in Datenbank enthalten
    Track 8 nicht in Datenbank enthalten
    Track 9 nicht in Datenbank enthalten
    Track 10 nicht in Datenbank enthalten

    Keiner der Tracks ist in der AccurateRip Datenbank vorhanden

    Ende des Statusreports

    REM GENRE “Hard Rock”
    REM DATE 1983
    REM DISCID 8208AC0A
    REM COMMENT “ExactAudioCopy v0.99pb5”
    PERFORMER “AC-DC”
    TITLE “Flick Of The Switch”
    FILE “AC-DC – Flick Of The Switch.flac” WAVE
    TRACK 01 AUDIO
    TITLE “Rising Power”
    PERFORMER “AC-DC”
    INDEX 01 00:00:00
    TRACK 02 AUDIO
    TITLE “This House Is On Fire”
    PERFORMER “AC-DC”
    INDEX 01 03:43:12
    TRACK 03 AUDIO
    TITLE “Flick Of The Switch”
    PERFORMER “AC-DC”
    INDEX 01 07:06:62
    TRACK 04 AUDIO
    TITLE “Nervous Shakedown”
    PERFORMER “AC-DC”
    INDEX 01 10:20:42
    TRACK 05 AUDIO
    TITLE “Landslide”
    PERFORMER “AC-DC”
    INDEX 01 14:47:60
    TRACK 06 AUDIO
    TITLE “Guns For Hire”
    PERFORMER “AC-DC”
    INDEX 01 18:45:62
    TRACK 07 AUDIO
    TITLE “Deep In The Hole”
    PERFORMER “AC-DC”
    INDEX 01 22:10:45
    TRACK 08 AUDIO
    TITLE “Bedlam In Belgium”
    PERFORMER “AC-DC”
    INDEX 01 25:30:20
    TRACK 09 AUDIO
    TITLE “Badlands”
    PERFORMER “AC-DC”
    INDEX 01 29:22:45
    TRACK 10 AUDIO
    TITLE “Brain Shake”
    PERFORMER “AC-DC”
    INDEX 01 33:01:20

    Author: Chaos

    Leave a Reply

    Your email address will not be published. Required fields are marked *

    This site uses Akismet to reduce spam. Learn how your comment data is processed.