ACDC – Black Ice




  • [Total: 0    Average: 0/5]

    Artist: ACDC
    Year: 2008
    Genre: Rock
    Notes: Discogs
    Add. Notes:
    Encoder: FLAC
    Bitrate: ~900 kBit/s (44.1 kHz/16 Bit/s)
    Size: 461,98 MB
    Password: “slam” (without ” “)


    Tracklist:

    1 - Rock N Roll Train - 4:22
    2 - Skies On Fire - 3:34
    3 - Big Jack - 3:57
    4 - Anything Goes - 3:22
    5 - War Machine - 3:10
    6 - Smash N Grab - 4:06
    7 - Spoilin' For A Fight - 3:17
    8 - Wheels - 3:29
    9 - Decibel - 3:34
    10 - Stormy May Day - 3:10
    11 - She Likes Rock N Roll - 3:53
    12 - Money Made - 4:16
    13 - Rock N Roll Dream - 4:41
    14 - Rocking All The Way - 3:23
    15 - Black Ice - 3:25
    

    EAC-Log, CUE-Sheed & NFO:

    Click to open spoiler
    Exact Audio Copy V1.0 beta 1 from 15. November 2010

    EAC extraction logfile from 14. June 2011, 10:48

    AC-DC / Black Ice (Albert 88697392382)

    Used drive : PLEXTOR DVDR PX-760A Adapter: 0 ID: 0

    Read mode : Secure
    Utilize accurate stream : Yes
    Defeat audio cache : Yes
    Make use of C2 pointers : No

    Read offset correction : 30
    Overread into Lead-In and Lead-Out : No
    Fill up missing offset samples with silence : Yes
    Delete leading and trailing silent blocks : No
    Null samples used in CRC calculations : Yes
    Used interface : Native Win32 interface for Win NT & 2000

    Used output format : User Defined Encoder
    Selected bitrate : 1024 kBit/s
    Quality : High
    Add ID3 tag : No
    Command line compressor : C:\Program Files (x86)\Exact Audio Copy\Flac\flac.exe
    Additional command line options : -T “DATE=%y” -T “GENRE=%m” -8 -V %s

    TOC of the extracted CD

    Track | Start | Length | Start sector | End sector
    ———————————————————
    1 | 0:00.00 | 4:21.38 | 0 | 19612
    2 | 4:21.38 | 3:34.13 | 19613 | 35675
    3 | 7:55.51 | 3:57.05 | 35676 | 53455
    4 | 11:52.56 | 3:22.12 | 53456 | 68617
    5 | 15:14.68 | 3:09.59 | 68618 | 82851
    6 | 18:24.52 | 4:06.31 | 82852 | 101332
    7 | 22:31.08 | 3:17.06 | 101333 | 116113
    8 | 25:48.14 | 3:28.37 | 116114 | 131750
    9 | 29:16.51 | 3:33.66 | 131751 | 147791
    10 | 32:50.42 | 3:10.16 | 147792 | 162057
    11 | 36:00.58 | 3:52.71 | 162058 | 179528
    12 | 39:53.54 | 4:15.34 | 179529 | 198687
    13 | 44:09.13 | 4:40.68 | 198688 | 219755
    14 | 48:50.06 | 3:22.37 | 219756 | 234942
    15 | 52:12.43 | 3:25.08 | 234943 | 250325

    Range status and errors

    Selected range

    Filename D:\bki71\AC-DC – Black Ice (Albert 88697392382).wav

    Peak level 99.9 %
    Extraction speed 0.1 X
    Range quality 100.0 %
    Test CRC 98962E6C
    Copy CRC 98962E6C
    Copy OK

    No errors occurred

    AccurateRip summary

    Track 1 accurately ripped (confidence 30) [0B33BB38]
    Track 2 accurately ripped (confidence 29) [C70C290B]
    Track 3 accurately ripped (confidence 30) [362E8490]
    Track 4 accurately ripped (confidence 30) [D2C3B47E]
    Track 5 accurately ripped (confidence 30) [D12EB4D0]
    Track 6 accurately ripped (confidence 29) [DC51E30D]
    Track 7 accurately ripped (confidence 29) [C64A110B]
    Track 8 accurately ripped (confidence 29) [45AD2BBB]
    Track 9 accurately ripped (confidence 29) [032BA370]
    Track 10 accurately ripped (confidence 29) [367179BD]
    Track 11 accurately ripped (confidence 29) [63B448AE]
    Track 12 accurately ripped (confidence 29) [739504F9]
    Track 13 accurately ripped (confidence 29) [D1B5F2A3]
    Track 14 accurately ripped (confidence 29) [1C17419C]
    Track 15 accurately ripped (confidence 29) [8BF780BB]

    All tracks accurately ripped

    End of status report

    ==== Log checksum 9672C649EDC7B467AF109FE8DFA7366B7F884CDACD5B54C42CD92C4345DEB1FC ====

    REM GENRE “Hard Rock”
    REM DATE 2009
    REM DISCID C90D090F
    REM COMMENT “ExactAudioCopy v1.0b1”
    PERFORMER “AC-DC”
    TITLE “Black Ice (Albert 88697392382)”
    FILE “AC-DC – Black Ice (Albert 88697392382).flac” WAVE
    TRACK 01 AUDIO
    TITLE “Rock ‘N’ Roll Train”
    PERFORMER “AC-DC”
    INDEX 01 00:00:00
    TRACK 02 AUDIO
    TITLE “Skies On Fire”
    PERFORMER “AC-DC”
    INDEX 01 04:21:38
    TRACK 03 AUDIO
    TITLE “Big Jack”
    PERFORMER “AC-DC”
    INDEX 01 07:55:51
    TRACK 04 AUDIO
    TITLE “Anything Goes”
    PERFORMER “AC-DC”
    INDEX 01 11:52:56
    TRACK 05 AUDIO
    TITLE “War Machine”
    PERFORMER “AC-DC”
    INDEX 01 15:14:68
    TRACK 06 AUDIO
    TITLE “Smash ‘N’ Grab”
    PERFORMER “AC-DC”
    INDEX 01 18:24:52
    TRACK 07 AUDIO
    TITLE “Spoilin’ For A Fight”
    PERFORMER “AC-DC”
    INDEX 01 22:31:08
    TRACK 08 AUDIO
    TITLE “Wheels”
    PERFORMER “AC-DC”
    INDEX 01 25:48:14
    TRACK 09 AUDIO
    TITLE “Decibel”
    PERFORMER “AC-DC”
    INDEX 01 29:16:51
    TRACK 10 AUDIO
    TITLE “Stormy May Day”
    PERFORMER “AC-DC”
    INDEX 01 32:50:42
    TRACK 11 AUDIO
    TITLE “She Likes Rock ‘N’ Roll”
    PERFORMER “AC-DC”
    INDEX 01 36:00:58
    TRACK 12 AUDIO
    TITLE “Money Made”
    PERFORMER “AC-DC”
    INDEX 01 39:53:54
    TRACK 13 AUDIO
    TITLE “Rock ‘N’ Roll Dream”
    PERFORMER “AC-DC”
    INDEX 01 44:09:13
    TRACK 14 AUDIO
    TITLE “Rocking All The Way”
    PERFORMER “AC-DC”
    INDEX 01 48:50:06
    TRACK 15 AUDIO
    TITLE “Black Ice”
    PERFORMER “AC-DC”
    INDEX 01 52:12:43

    Author: Chaos

    Leave a Reply

    Your email address will not be published. Required fields are marked *

    This site uses Akismet to reduce spam. Learn how your comment data is processed.