ACDC – Ballbreaker




[Total: 0    Average: 0/5]

Artist: ACDC
Year: 1995
Genre: Rock
Notes: Discogs
Add. Notes:
Encoder: FLAC
Bitrate: ~1000 kBit/s (44.1 kHz/16 Bit/s)
Size: 475,81 MB
Password: “slam” (without ” “)


Tracklist:

1 - Hard As A Rock - 4:32
2 - Cover You In Oil - 4:33
3 - The Furor - 4:10
4 - Boogie Man - 4:07
5 - The Honey Roll - 5:35
6 - Burnin' Alive - 5:05
7 - Hail Caesar - 5:14
8 - Love Bomb - 3:14
9 - Caught With Your Pants Down - 4:15
10 - Whiskey On The Rocks - 4:35
11 - Ballbreaker - 4:32

EAC-Log, CUE-Sheed & NFO:

Click to open spoiler
Exact Audio Copy V0.99 prebeta 5 from 4. May 2009

EAC Auslese-Logdatei vom 22. Juni 2010, 19:04

AC-DC / Ballbreaker

Benutztes Laufwerk : HL-DT-STDVD-ROM GDR-H30N Adapter: 0 ID: 1

Lesemodus : Sicher
Benutze Accurate Stream : Ja
Audio Puffer abgeschaltet : Ja
Benutze C2 Fehlerinformationen : Nein

Leseoffset Korrektur : 6
Überlesen in das Lead-In und Lead-Out : Nein
Fülle fehlende Offsetsample mit Stille auf : Ja
Lösche führende und nachfolgende stille Blöcke : Nein
Null Samples gehen in CRC Berechnungen ein : Ja
Benutzte Schnittstelle : Installierte externe ASPI Schnittstelle

Benutztes Ausgabeformat : Interne WAV Routinen
Sampleformat : 44.100 Hz; 16 Bit; Stereo

TOC der ausgelesenen CD

Track | Start | Länge | Startsektor | Endsektor
——————————————————-
1 | 0:00.00 | 4:31.50 | 0 | 20374
2 | 4:31.50 | 4:32.62 | 20375 | 40836
3 | 9:04.37 | 4:10.30 | 40837 | 59616
4 | 13:14.67 | 4:07.28 | 59617 | 78169
5 | 17:22.20 | 5:34.72 | 78170 | 103291
6 | 22:57.17 | 5:05.33 | 103292 | 126199
7 | 28:02.50 | 5:14.27 | 126200 | 149776
8 | 33:17.02 | 3:14.08 | 149777 | 164334
9 | 36:31.10 | 4:14.52 | 164335 | 183436
10 | 40:45.62 | 4:35.05 | 183437 | 204066
11 | 45:20.67 | 4:32.00 | 204067 | 224466

Bereichsstatus und Fehler

Gewählter Bereich

Dateiname L:\Audi\ACDC\Original Albums\1995 – Ballbreaker\AC-DC – Ballbreaker.wav

Spitzenpegel 100.0 %
Bereichsqualität 99.9 %
Kopie CRC E1BA4ADC
Kopie OK

Keine Fehler aufgetreten

AccurateRip Übersicht

Track 1 akkurat gelesen (Zuversicht 200) [E01C1B3A]
Track 2 akkurat gelesen (Zuversicht 200) [C5CB6384]
Track 3 akkurat gelesen (Zuversicht 200) [60B016F8]
Track 4 akkurat gelesen (Zuversicht 200) [C2883832]
Track 5 akkurat gelesen (Zuversicht 200) [D390632A]
Track 6 akkurat gelesen (Zuversicht 200) [7F6FA74D]
Track 7 akkurat gelesen (Zuversicht 200) [76CABAF1]
Track 8 akkurat gelesen (Zuversicht 200) [0C2AB0FC]
Track 9 akkurat gelesen (Zuversicht 200) [91FD3D6E]
Track 10 akkurat gelesen (Zuversicht 200) [1CDBE242]
Track 11 akkurat gelesen (Zuversicht 200) [A9FEC1CA]

Alle Tracks wurden akkurat gelesen

Ende des Statusreports

REM GENRE Rock
REM DATE 1995
REM DISCID AC0BB00B
REM COMMENT “ExactAudioCopy v0.99pb5”
PERFORMER “AC-DC”
TITLE “Ballbreaker”
FILE “AC-DC – Ballbreaker.flac” WAVE
TRACK 01 AUDIO
TITLE “Hard As A Rock”
PERFORMER “AC-DC”
INDEX 01 00:00:00
TRACK 02 AUDIO
TITLE “Cover You In Oil”
PERFORMER “AC-DC”
INDEX 00 04:31:30
INDEX 01 04:31:50
TRACK 03 AUDIO
TITLE “The Furor”
PERFORMER “AC-DC”
INDEX 00 09:04:02
INDEX 01 09:04:37
TRACK 04 AUDIO
TITLE “Boogie Man”
PERFORMER “AC-DC”
INDEX 01 13:14:67
TRACK 05 AUDIO
TITLE “The Honey Roll”
PERFORMER “AC-DC”
INDEX 00 17:22:12
INDEX 01 17:22:20
TRACK 06 AUDIO
TITLE “Burnin’ Alive”
PERFORMER “AC-DC”
INDEX 00 22:56:27
INDEX 01 22:57:17
TRACK 07 AUDIO
TITLE “Hail Caesar”
PERFORMER “AC-DC”
INDEX 00 28:02:32
INDEX 01 28:02:50
TRACK 08 AUDIO
TITLE “Love Bomb”
PERFORMER “AC-DC”
INDEX 01 33:17:02
TRACK 09 AUDIO
TITLE “Caught With Your Pants Down”
PERFORMER “AC-DC”
INDEX 01 36:31:10
TRACK 10 AUDIO
TITLE “Whiskey On The Rocks”
PERFORMER “AC-DC”
INDEX 00 40:45:42
INDEX 01 40:45:62
TRACK 11 AUDIO
TITLE “Ballbreaker”
PERFORMER “AC-DC”
INDEX 00 45:20:50
INDEX 01 45:20:67

Spread the Download

Leave a Reply

Your email address will not be published. Required fields are marked *

Enter the text from the image below
 

This site uses Akismet to reduce spam. Learn how your comment data is processed.